The Five-Year Engagement (2012) Unrated BluRay 720p x264 [Dual Audio] [Hindi - Eng] AAC DD2.0 Esub


Poster


iMDB
Title: The Five-Year Engagement
Year: 2012
Runtime: 124 minutes
Votes: 85880
Rating: 6.2/10
Language: English, Spanish
Tagline: A comedy about the journey between popping the question and tying the knot.
Director: Nicholas Stoller
Writing By: Jason Segel,Nicholas Stoller,
Produced By: Judd Apatow,Lisa Goldberg,Rodney Rothman,Jason Segel,Nicholas Stoller,Richard Vane,
Music: Michael Andrews
Cast:
Jason Segel as Tom Solomon
Emily Blunt as Violet Barnes
Chris Pratt as Alex Eilhauer
Alison Brie as Suzie Barnes-Eilhauer
Lauren Weedman as Chef Sally
Mimi Kennedy as Carol Solomon
David Paymer as Pete Solomon
Jacki Weaver as Sylvia Dickerson-Barnes
Jim Piddock as George Barnes
Adam Campbell as Gideon
Trailers:
The Five-Year Engagement
The Five-Year Engagement
No. 1



Details
Name:The Five-Year Engagement (2012) BluRay 720p x264 [Dual Audio] [Hindi - Eng] AAC DD2.0 Esub
Description:
The Five-Year Engagement (2012) BluRay 720p x264 [Dual Audio] [Hindi - Eng] AAC DD2.0 Esub




Format                                   : Matroska
Format version                           : Version 4 / Version 2
File size                                : 972 MiB
Duration                                 : 2 h 11 min
Overall bit rate                         : 1 036 kb/s

Video
ID                                       : 1
Format                                   : AVC
Format/Info                              : Advanced Video Codec
Format profile                           : High@L4
Format settings                          : CABAC / 6 Ref Frames
Format settings, CABAC                   : Yes
Format settings, ReFrames                : 6 frames
Codec ID                                 : V_MPEG4/ISO/AVC
Duration                                 : 2 h 11 min
Bit rate                                 : 809 kb/s
Width                                    : 1 280 pixels
Height                                   : 688 pixels
Display aspect ratio                     : 1.85:1
Frame rate mode                          : Constant
Frame rate                               : 23.976 (24000/1001) FPS
Color space                              : YUV
Chroma subsampling                       : 4:2:0
Bit depth                                : 8 bits
Scan type                                : Progressive
Bits/(Pixel*Frame)                       : 0.038
Stream size                              : 760 MiB (78%)
Writing library                          : x264 core 125 r2200 999b753
Default                                  : Yes
Forced                                   : No

Audio #1
ID                                       : 2
Format                                   : AAC
Format/Info                              : Advanced Audio Codec
Format profile                           : LC
Codec ID                                 : A_AAC-2
Duration                                 : 2 h 11 min
Bit rate                                 : 130 kb/s
Channel(s)                               : 2 channels
Channel positions                        : Front: L R
Sampling rate                            : 48.0 kHz
Frame rate                               : 46.875 FPS (1024 SPF)
Compression mode                         : Lossy
Delay relative to video                  : -83 ms
Stream size                              : 122 MiB (13%)
Language                                 : Hindi
Default                                  : Yes
Forced                                   : Yes

Audio #2
ID                                       : 3
Format                                   : AAC
Format/Info                              : Advanced Audio Codec
Format profile                           : LC
Codec ID                                 : A_AAC-2
Duration                                 : 2 h 11 min
Bit rate                                 : 94.0 kb/s
Channel(s)                               : 2 channels
Channel positions                        : Front: L R
Sampling rate                            : 44.1 kHz
Frame rate                               : 43.066 FPS (1024 SPF)
Compression mode                         : Lossy
Delay relative to video                  : -83 ms
Stream size                              : 88.3 MiB (9%)
Language                                 : English
Default                                  : No
Forced                                   : No

Text
ID                                       : 4
Format                                   : UTF-8
Codec ID                                 : S_TEXT/UTF8
Codec ID/Info                            : UTF-8 Plain Text
Duration                                 : 2 h 4 min
Bit rate                                 : 84 b/s
Count of elements                        : 2438
Stream size                              : 77.2 KiB (0%)
Language                                 : English
Default                                  : Yes
Forced                                   : Yes

YuYIc.th.jpg YuMjs.th.jpg YuGhK.th.jpg Yuigz.th.jpg Yucm3.th.jpg YuLSM.th.jpg Yu6zv.th.jpg YuVME.th.jpg YuwNd.th.jpg
Category:Movies > Hollywood Dub
Lang:Hindi
Total Size:972.62 MB





|| Download This Movie Via Single Resumable Links Size: 972 MB ||

Direct-1 Google Drive | Direct-2 | Direct-3 |

Watch Online Click Here

Post a Comment

0 Comments