The Last Airbender (2010) BluRay 720p x264 Dual Audio [Hindi DD2.0 - English DD5.1] - Esub ~ Ranvijay


Poster


iMDB
Imdb Picture Title: The Last Airbender
Year: 2010
Runtime: 103 minutes
Votes: 131734
Rating: 4.1/10
Language: English
Country: USA
All Genres: Action, Adventure, Family, Fantasy
Plot Outline: The world is divided into four kingdoms, each represented by the element they harness, and peace has lasted throughout the realms of Water, Air, Earth, and Fire under the supervision of the Avatar, a link to the spirit world and the only being capable of mastering the use of all four elements. When young Avatar Aang disappears, the Fire Nation launches an attack to eradicate all members of the Air Nomads to prevent interference in their future plans for world domination. 100 years pass and current Fire Lord Ozai continues to conquer and imprison anyone with elemental "bending" abilities in the Earth and Water Kingdoms, while siblings Katara and Sokka from a Southern Water Tribe find a mysterious boy trapped beneath the ice outside their village. Upon rescuing him, he reveals himself to be Aang, Avatar and last of the Air Nomads. Swearing to protect the Avatar, Katara and Sokka journey with him to the Northern Water Kingdom in his quest to master "Waterbending" and eventually fulfill ... Written by The Massie Twins
Tagline: Four nations, one destiny
Director: M. Night Shyamalan
Writing By: M. Night Shyamalan,
Produced By: Scott Aversano,Brad Avery,Michael Dante DiMartino,Kathleen Kennedy,Bryan Konietzko,Frank Marshall,Sam Mercer,Mouns Overgaard,Jose L. Rodriguez,M. Night Shyamalan,Chanh Tran,Thi Bich Ngoc Tran,Iris Weber,
Music: James Newton Howard
Cast:
Noah Ringer as Aang
Dev Patel as Prince Zuko
Nicola Peltz as Katara
Jackson Rathbone as Sokka
Shaun Toub as Uncle Iroh
Aasif Mandvi as Commander Zhao
Cliff Curtis as Fire Lord Ozai
Seychelle Gabriel as Princess Yue
Katharine Houghton as Katara's Grandma
Francis Guinan as Master Pakku
Trailers:
The Last Airbender - "Rebellion" TV Spot
The Last Airbender: "Legend" TV Spot
The Last Airbender: Trailer #3
The Last Airbender: "Discover Your Element" TV Spot
The Last Airbender: Trailer #2
The Last Airbender: Super Bowl Spot
The Last Airbender -- Trailer #1
The Last Airbender -- International Trailer



Details
Name:The Last Airbender (2010) 720p BluRay x264 Dual Audio [Hindi DD2.0 - English DD5.1] - Esub ~ Ra...
Description:
The Last Airbender (2010) 720p BluRay x264 Dual Audio [Hindi DD2.0 - English DD5.1] - Esub ~ Ranvijay




Thanks To The Punisher For Hindi Audio


General
Format                                   : Matroska
Format version                           : Version 4 / Version 2
File size                                : 1.11 GiB
Duration                                 : 1 h 43 min
Overall bit rate                         : 1 538 kb/s
Movie name                               : The Last Airbender (2010) 720p BluRay x264 Dual Audio [Hindi DD2.0 - English DD5.1] - Esub ~ Ranvijay

Video
ID                                       : 1
Format                                   : AVC
Format/Info                              : Advanced Video Codec
Duration                                 : 1 h 43 min
Bit rate                                 : 1 116 kb/s
Width                                    : 1 280 pixels
Height                                   : 544 pixels
Display aspect ratio                     : 2.35:1
Frame rate mode                          : Constant
Frame rate                               : 23.976 (24000/1001) FPS
Color space                              : YUV
Chroma subsampling                       : 4:2:0
Bit depth                                : 8 bits
Scan type                                : Progressive
Bits/(Pixel*Frame)                       : 0.067
Stream size                              : 824 MiB (73%)
Title                                    : ~Ranvijay~

Audio #1
ID                                       : 2
Format                                   : AAC
Format/Info                              : Advanced Audio Codec
Format profile                           : LC
Codec ID                                 : A_AAC-2
Duration                                 : 1 h 43 min
Bit rate                                 : 192 kb/s
Channel(s)                               : 2 channels
Channel positions                        : Front: L R
Sampling rate                            : 48.0 kHz
Frame rate                               : 46.875 FPS (1024 SPF)
Compression mode                         : Lossy
Delay relative to video                  : 3 ms
Stream size                              : 142 MiB (12%)
Title                                    : ~Ranvijay~
Language                                 : Hindi
Default                                  : Yes
Forced                                   : Yes

Audio #2
ID                                       : 3
Format                                   : AC-3
Format/Info                              : Audio Coding 3
Codec ID                                 : A_AC3
Duration                                 : 1 h 43 min
Bit rate mode                            : Constant
Bit rate                                 : 224 kb/s
Channel(s)                               : 6 channels
Channel positions                        : Front: L C R, Side: L R, LFE
Sampling rate                            : 48.0 kHz
Frame rate                               : 31.250 FPS (1536 SPF)
Bit depth                                : 16 bits
Compression mode                         : Lossy
Stream size                              : 165 MiB (15%)
Title                                    : ~Ranvijay~
Language                                 : English
Service kind                             : Complete Main
Default                                  : No
Forced                                   : No

Text
ID                                       : 4
Format                                   : VobSub
Muxing mode                              : zlib
Codec ID                                 : S_VOBSUB
Codec ID/Info                            : Picture based subtitle format used on DVDs
Duration                                 : 1 h 32 min
Bit rate                                 : 6 430 b/s
Count of elements                        : 689
Stream size                              : 4.25 MiB (0%)
Title                                    : ~Ranvijay~
Language                                 : English
Default                                  : Yes
Forced                                   : Yes


MJYFW.th.jpg MJMXQ.th.jpg MJG8q.th.jpg MJiKh.th.jpg MJccr.th.jpg MJL4j.th.jpg
Category:Movies > Bollywood
Lang:Hindi
Total Size:1.12 GB



|| Download This Movie Via Single Resumable Links Size: 1.03 GB ||

Direct-1 Google Drive | Direct-2 | Direct-3 |

Watch Online Click Here

Post a Comment

0 Comments