The Other Boleyn Girl (2008) BluRay 720p x264 {Dual Audio} [Hindi - English] - Hon3yHD


Poster



iMDB
Imdb Picture Title: The Other Boleyn Girl
Year: 2008
Runtime: 115 minutes
Votes: 91060
Rating: 6.7/10
Language: English
Country: UK, USA
All Genres: Biography, Drama, History, Romance
Plot Outline: Two sisters contend for the affection of King Henry VIII.
Tagline: What if you could have everything you ever wanted? What if all you had to do was betray the sister you loved?
Director: Justin Chadwick
Writing By: Peter Morgan,Philippa Gregory,
Produced By: Mark Cooper,Alison Owen,Jane Robertson,Scott Rudin,David M. Thompson,Faye Ward,
Music: Paul Cantelon
Cast:
Natalie Portman as Anne Boleyn
Scarlett Johansson as Mary Boleyn
Eric Bana as Henry Tudor
Jim Sturgess as George Boleyn
Mark Rylance as Sir Thomas Boleyn
Kristin Scott Thomas as Lady Elizabeth Boleyn
David Morrissey as The Duke of Norfolk
Benedict Cumberbatch as William Carey
Oliver Coleman as Henry Percy
Ana Torrent as Katherine of Aragon
Trailers:
The Other Boleyn Girl



Details
Name:The.Other.Boleyn.Girl.2008.BluRay.720p.x264.{Dual.Audio}.[Hindi.Org-English].-.Hon3yHD
Description:
The Other Boleyn Girl (2008) BluRay 720p x264 {Dual Audio} [Hindi - English] - Hon3yHD

 

Format                      : Matroska
Format version              : Version 4 / Version 2
File size                   : 1.24 GiB
Duration                    : 1 h 55 min
Overall bit rate            : 1 531 kb/s

Video
ID                          : 1
Format                      : AVC
Format/Info                 : Advanced Video Codec
Format profile              : High@L4.1
Format settings             : CABAC / 8 Ref Frames
Format settings, CABAC      : Yes
Format settings, ReFrames   : 8 frames
Codec ID                    : V_MPEG4/ISO/AVC
Duration                    : 1 h 55 min
Bit rate                    : 1 200 kb/s
Width                       : 1 280 pixels
Height                      : 708 pixels
Display aspect ratio        : 16:9
Frame rate mode             : Constant
Frame rate                  : 23.976 (24000/1001) FPS

Audio #1
ID                          : 2
Format                      : AAC
Format/Info                 : Advanced Audio Codec
Format profile              : LC
Codec ID                    : A_AAC-2
Duration                    : 1 h 55 min
Bit rate                    : 160 kb/s
Channel(s)                  : 2 channels
Channel positions           : Front: L R
Sampling rate               : 48.0 kHz
Frame rate                  : 46.875 FPS (1024 SPF)
Compression mode            : Lossy
Delay relative to video     : 10 s 479 ms
Stream size                 : 132 MiB (10%)
Title                       : Stereo
Language                    : Hindi

Audio #2
ID                          : 3
Format                      : AAC
Format/Info                 : Advanced Audio Codec
Format profile              : LC
Codec ID                    : A_AAC-2
Duration                    : 1 h 55 min
Bit rate                    : 160 kb/s
Channel(s)                  : 2 channels
Channel positions           : Front: L R
Sampling rate               : 48.0 kHz
Frame rate                  : 46.875 FPS (1024 SPF)
Compression mode            : Lossy
Delay relative to video     : -21 ms
Stream size                 : 132 MiB (10%)
Title                       : Stereo
Language                    : English

       
Category:Movies > Hollywood Dub
Lang:Hindi
Total Size:1.24 GB



|| Download This Movie Via Single Resumable Links Size: 1.24 GB ||

Direct-1 Google Drive | Direct-2 | Direct-3 |

Watch Online Click Here

Post a Comment

0 Comments