The Peacemaker (1997) BluRay 720p x264 Dual audio [Hindi DD5.1 - English DD5.1] - Esub ~ Ranvijay


Poster



iMDB
Title: The Peacemaker
Year: 1997
Runtime: 124 minutes
Language: English, Russian, Serbian, Bosnian, Croatian, Polish
All Genres: Action, Thriller
Tagline: In the fall of 1997, every nuclear device in the world will be accounted for... Except one.
Director: Mimi Leder
Writing By: Leslie Cockburn,Andrew Cockburn,Michael Schiffer,
Produced By: Andrew Cockburn,Leslie Cockburn,Michael Grillo,Pat Kehoe,Branko Lustig,Laurie MacDonald,Walter F. Parkes,John Wells,
Music: Hans Zimmer
Cast:
George Clooney as Lt. Col. Thomas Devoe
Nicole Kidman as Dr. Julia Kelly
Marcel Iures as Dusan Gavrich
Aleksandr Baluev as General Aleksandr Kodoroff
Rene Medvesek as Vlado Mirich
Gary Werntz as Terry Hamilton
Randall Batinkoff as Ken
Jim Haynie as General Garnett
Alexander Strobele as Dietrich Schuhmacher
Holt McCallany as Mark Appleton
Trailers:
The Peacemaker



Details
Name:The Peacemaker (1997) 720p BluRay x264 Dual audio [Hindi DD5.1 - English DD5.1] - Esub ~ Ranvij...
Description:
The Peacemaker (1997) 720p BluRay x264 Dual audio [Hindi DD5.1 - English DD5.1] - Esub ~ Ranvijay


Thanks To Hammer For Hindi Audio


General
Format                                   : Matroska
Format version                           : Version 4 / Version 2
File size                                : 1.29 GiB
Duration                                 : 2 h 3 min
Overall bit rate                         : 1 487 kb/s
Movie name                               : The Peacemaker (1997) 720p BluRay x264 Dual audio [Hindi DD5.1 - English DD5.1] - Esub ~ Ranvijay

Video
ID                                       : 1
Format                                   : AVC
Format/Info                              : Advanced Video Codec
Duration                                 : 2 h 3 min
Bit rate                                 : 1 037 kb/s
Width                                    : 1 280 pixels
Height                                   : 544 pixels
Display aspect ratio                     : 2.35:1
Frame rate mode                          : Constant
Frame rate                               : 23.976 (24000/1001) FPS
Color space                              : YUV
Chroma subsampling                       : 4:2:0
Bit depth                                : 8 bits
Scan type                                : Progressive
Bits/(Pixel*Frame)                       : 0.062
Stream size                              : 918 MiB (70%)
Title                                    : ~Ranvijay~

Audio #1
ID                                       : 2
Format                                   : AC-3
Format/Info                              : Audio Coding 3
Codec ID                                 : A_AC3
Duration                                 : 2 h 3 min
Bit rate mode                            : Constant
Bit rate                                 : 224 kb/s
Channel(s)                               : 6 channels
Channel positions                        : Front: L C R, Side: L R, LFE
Sampling rate                            : 48.0 kHz
Frame rate                               : 31.250 FPS (1536 SPF)
Bit depth                                : 16 bits
Compression mode                         : Lossy
Stream size                              : 198 MiB (15%)
Title                                    : ~Ranvijay~
Language                                 : Hindi
Service kind                             : Complete Main
Default                                  : Yes
Forced                                   : Yes

Audio #2
ID                                       : 3
Format                                   : AC-3
Format/Info                              : Audio Coding 3
Codec ID                                 : A_AC3
Duration                                 : 2 h 3 min
Bit rate mode                            : Constant
Bit rate                                 : 224 kb/s
Channel(s)                               : 6 channels
Channel positions                        : Front: L C R, Side: L R, LFE
Sampling rate                            : 48.0 kHz
Frame rate                               : 31.250 FPS (1536 SPF)
Bit depth                                : 16 bits
Compression mode                         : Lossy
Stream size                              : 198 MiB (15%)
Title                                    : ~Ranvijay~
Language                                 : English
Service kind                             : Complete Main
Default                                  : No
Forced                                   : No

Text
ID                                       : 4
Format                                   : UTF-8
Codec ID                                 : S_TEXT/UTF8
Codec ID/Info                            : UTF-8 Plain Text
Duration                                 : 1 h 56 min
Bit rate                                 : 56 b/s
Count of elements                        : 1173
Stream size                              : 48.2 KiB (0%)
Title                                    : ~Ranvijay~
Language                                 : English
Default                                  : Yes
Forced                                   : Yes


 
M3hJE.th.jpg M3dkd.th.jpg M3ftv.th.jpg M30V9.th.jpg M3M28.th.jpg M3qst.th.jpg
Category:Movies > Hollywood Dub
Lang:Hindi
Total Size:1.30 GB



|| Download This Movie Via Single Resumable Links Size: 1.29 GB ||

Direct-1 Google Drive | Direct-2 | Direct-3 |

Watch Online Click Here

Post a Comment

0 Comments