The SpongeBob Squarepants Movie (2004) BRRip 720p Dual Audio [Hindi+English] AAC x264


Poster


iMDB
Title: The SpongeBob SquarePants Movie
Year: 2004
Runtime: 87 minutes
Votes: 68015
Rating: 7.0/10
Language: English
Tagline: Bigger - More Absorbent.
Director: Stephen Hillenburg
Mark Osborne
Writing By: Stephen Hillenburg,Stephen Hillenburg,Derek Drymon,Tim Hill,Stephen Hillenburg,Kent Osborne,Aaron Springer,Paul Tibbitt,
Produced By: Derek Drymon,Albie Hecht,Stephen Hillenburg,Ramsey Ann Naito,Aaron Parry,Julia Pistor,Gina Shay,Peter M. Tobyansen,Steven Wilzbach,
Music: Steve Belfer Gregor Narholz
Cast:
Tom Kenny as SpongeBob / Narrator / Gary / Clay / Tough Fish #2 / Twin #2 / Houston Voice
Clancy Brown as Mr. Krabs
Rodger Bumpass as Squidward / Fish #4
Bill Fagerbakke as Patrick Star / Fish #2 / Chum Customer / Local Fish
Mr. Lawrence as Plankton / Fish #7 / Attendant #2, Lloyd
Jill Talley as Karen / Old Lady
Carolyn Lawrence as Sandy
Mary Jo Catlett as Mrs. Puff
Jeffrey Tambor as King Neptune
Scarlett Johansson as Mindy
Trailers:
Official Release Trailer
The SpongeBob SquarePants Movie
Spongebob Squarepants: DVD Collection
The SpongeBob SquarePants Movie
The SpongeBob SquarePants Movie



Details
Name:The SpongeBob Squarepants Movie (2004) BRRip 720p Dual Audio [Hindi+English] x264 AAC
Description:
The SpongeBob Squarepants Movie (2004) BRRip 720p Dual Audio [Hindi+English] x264 AAC




Format                                   : Matroska
Format version                           : Version 4 / Version 2
File size                                : 934 MiB
Duration                                 : 1 h 27 min
Overall bit rate                         : 1 498 kb/s

Video
ID                                       : 1
Format                                   : AVC
Format/Info                              : Advanced Video Codec
Format profile                           : High@L3.1
Format settings                          : CABAC / 5 Ref Frames
Format settings, CABAC                   : Yes
Format settings, ReFrames                : 5 frames
Codec ID                                 : V_MPEG4/ISO/AVC
Duration                                 : 1 h 27 min
Bit rate                                 : 1 216 kb/s
Width                                    : 1 280 pixels
Height                                   : 720 pixels
Display aspect ratio                     : 16:9
Frame rate mode                          : Constant
Frame rate                               : 23.976 (24000/1001) FPS
Color space                              : YUV
Chroma subsampling                       : 4:2:0
Bit depth                                : 8 bits
Scan type                                : Progressive
Bits/(Pixel*Frame)                       : 0.055
Stream size                              : 772 MiB (83%)
Writing library                          : x264 core 148 r2643 5c65704
Language                                 : English
Default                                  : Yes
Forced                                   : No

Audio #1
ID                                       : 2
Format                                   : AAC
Format/Info                              : Advanced Audio Codec
Format profile                           : LC
Codec ID                                 : A_AAC-2
Duration                                 : 1 h 27 min
Bit rate                                 : 129 kb/s
Channel(s)                               : 2 channels
Channel positions                        : Front: L R
Sampling rate                            : 48.0 kHz
Frame rate                               : 46.875 FPS (1024 SPF)
Compression mode                         : Lossy
Stream size                              : 80.4 MiB (9%)
Language                                 : Hindi
Default                                  : Yes
Forced                                   : Yes

Audio #2
ID                                       : 3
Format                                   : AAC
Format/Info                              : Advanced Audio Codec
Format profile                           : LC
Codec ID                                 : A_AAC-2
Duration                                 : 1 h 27 min
Bit rate                                 : 128 kb/s
Channel(s)                               : 2 channels
Channel positions                        : Front: L R
Sampling rate                            : 48.0 kHz
Frame rate                               : 46.875 FPS (1024 SPF)
Compression mode                         : Lossy
Delay relative to video                  : 19 ms
Stream size                              : 79.8 MiB (9%)
Language                                 : English
Default                                  : No
Forced                                   : No

Text
ID                                       : 4
Format                                   : UTF-8
Codec ID                                 : S_TEXT/UTF8
Codec ID/Info                            : UTF-8 Plain Text
Duration                                 : 1 h 26 min
Bit rate                                 : 57 b/s
Count of elements                        : 1149
Stream size                              : 36.6 KiB (0%)
Language                                 : English
Default                                  : Yes
Forced                                   : No

                   
Category:Movies > Hollywood Dub
Lang:Hindi
Total Size:944.10 MB



|| Download This Movie Via Single Resumable Links Size: 934 MB ||

Direct-1 Google Drive | Direct-2 | Direct-3 |

Watch Online Click Here

Post a Comment

0 Comments