The Wishing Tree (2017) Hindi 720p HDRip x264 AAC ESubs


Poster


iMDB
Imdb Picture Title: The Wishing Tree
Year: 2017
Runtime: 99 minutes
Votes: 28
Rating: 6.9/10
Language: Hindi, English
Country: India
All Genres: Drama, Fantasy
Plot Outline: Produced by Raajaysh Chetwal (Rhombus Films), 'The Wishing Tree' is a magical, inspirational and an extremely entertaining story of five children in a hill-station somewhere in India, who ...
Tagline: Your dreams are just a touch away !!
Director: Manika Sharma
Writing By: Manika Sharma,
Produced By: Raajaysh Chetwal,Vaseem Ahmed Dehlvi,Ashutosh Goswami,Gulshan Jhurani,Rekha Kalra,
Music: Sandesh Shandilya
Cast:
Varsha Agnihotri as Class Teacher
Shabana Azmi as The Gypsy Woman
Jayati Bhatia as Guriqbal's Mother
Jaya Bhattacharya as Nikita's Mother
Makrand Deshpande as Sadho
Vrajesh Hirjee as
Shivani Joshi as Fatima
Rajit Kapoor as Fatima's Father
Shipra Kasana as Village Bride
Harshpreet Kaur as Nikita
Trailers:
Official Trailer of "The Wishing Tree"



Details
Name:The.Wishing.Tree.(2017).Netflix.1080p.Hindi.x264.AC3.DD5.1.-.TeamTelly
Description:
The Wishing Tree (2017) Hindi 720p HDRip x264 AAC ESubs - 900MB


Format                                   : Matroska
Format version                           : Version 4 / Version 2
File size                                : 844 MiB
Duration                                 : 1 h 56 min
Overall bit rate                         : 1 012 kb/s

Video
ID                                       : 1
Format                                   : AVC
Format/Info                              : Advanced Video Codec
Format profile                           : High@L4.1
Format settings                          : CABAC / 4 Ref Frames
Format settings, CABAC                   : Yes
Format settings, ReFrames                : 4 frames
Codec ID                                 : V_MPEG4/ISO/AVC
Duration                                 : 1 h 56 min
Bit rate                                 : 950 kb/s
Width                                    : 1 280 pixels
Height                                   : 720 pixels
Display aspect ratio                     : 16:9
Frame rate mode                          : Constant
Frame rate                               : 23.976 (24000/1001) FPS
Color space                              : YUV
Chroma subsampling                       : 4:2:0
Bit depth                                : 8 bits
Scan type                                : Progressive
Bits/(Pixel*Frame)                       : 0.043
Stream size                              : 789 MiB (93%)
Writing library                          : x264 core 148 r2708 86b7198
Language                                 : English
Default                                  : Yes
Forced                                   : No
Color range                              : Limited
Color primaries                          : BT.709
Transfer characteristics                 : BT.709
Matrix coefficients                      : BT.709

Audio
ID                                       : 2
Format                                   : AAC
Format/Info                              : Advanced Audio Codec
Format profile                           : LC
Codec ID                                 : A_AAC-2
Duration                                 : 1 h 56 min
Bit rate                                 : 64.3 kb/s
Channel(s)                               : 2 channels
Channel positions                        : Front: L R
Sampling rate                            : 44.1 kHz
Frame rate                               : 43.066 FPS (1024 SPF)
Compression mode                         : Lossy
Delay relative to video                  : -23 ms
Stream size                              : 53.7 MiB (6%)
Default                                  : Yes
Forced                                   : No

Text
ID                                       : 3
Format                                   : UTF-8
Codec ID                                 : S_TEXT/UTF8
Codec ID/Info                            : UTF-8 Plain Text
Duration                                 : 1 h 51 min
Bit rate                                 : 51 b/s
Count of elements                        : 1386
Stream size                              : 41.9 KiB (0%)
Language                                 : English
Default                                  : Yes
Forced                                   : No

YofWt.th.png Yo8q9.th.png You7d.th.png Yohy8.th.png YoduJ.th.png Yo0DD.th.png
Category:Movies > Bollywood
Lang:Hindi
Total Size:844.44 MB





|| Download This Movie Via Single Resumable Links Size: 844 MB ||

Direct-1 Google Drive | Direct-2 | Direct-3 |

Watch Online Click Here

Post a Comment

0 Comments