Thinner (1996) BluRay 720p x264 Dual Audio [Hindi - English] AC3 DD5.1 - Esub ~ Ranvijay


Poster


iMDB
Imdb Picture Title: Thinner
Year: 1996
Runtime: 93 minutes
Votes: 21809
Rating: 5.7/10
Language: English
Country: USA
All Genres: Fantasy, Horror
Plot Outline: An obese attorney is cursed by a gypsy to rapidly and uncontrollably lose weight.
Tagline: More terror. Less filling.
Director: Tom Holland
Writing By: Stephen King,Michael McDowell,Tom Holland,
Produced By: Mitchell Galin,Andrew Golov,Randy Jurgensen,Stephen F. Kesten,A. Welch Lambeth,Richard P. Rubinstein,
Music: Daniel Licht
Plot:
A fat Lawyer finds himself growing "Thinner" when an old gypsy man places a hex on him. Now the lawyer must call upon his friends in organized crime to help him persuade the gypsy to lift the curse. Time is running out for the desperate lawyer as he draws closer to his own death, and grows ever thinner.
- Written by <Cane@Cris.COM>
When a gypsy caravan arrives in Fairview, the conservative judge Phillips forces the gypsies to leave town. Meanwhile the gluttony lawyer Billy Halleck, who has difficulties to reduce his weight, successfully defends the mobster Ritchie Ginelli in court. During the night, he celebrates with his partner and wives at a dinner party. While driving back home, his wife Heidi pleasures Billy during which he accidentally runs over the old gypsy Suzanne Lempke, the daughter of the patriarch Tadzu Lempke. During the trial, Billy omits the reason of the accident; the chief of police Duncan Hopley perjuries; and the bigoted judge declares Billy not-guilty. The next day, Billy, Duncan and Phillips are cursed by Tadzu, who puts a hex on each one of them. Billy gets thinner and thinner and while seeking out Tadzu to ask him to remove the spell, he suspects that his wife is having an affair with his doctor and friend Mike Houston. Billy feels that his life is running out and asks for help to Ritchie to convince Tadzu using his method to call off the jinx.
- Written by Claudio Carvalho, Rio de Janeiro, Brazil
An obese attorney is cursed by a gypsy to rapidly and uncontrollably lose weight.
- Written by <crow_steve@hotmail.com>
Cast:
Robert John Burke as Billy Halleck
Lucinda Jenney as Heidi Halleck
Bethany Joy Lenz as Linda Halleck
Time Winters as Prosecutor
Howard Erskine as Judge Phillips
Joe Mantegna as Richie Ginelli
Terrence Garmey as Bailiff
Randy Jurgensen as Court Clerk
Jeff Ware as Max Duggenfield
Antonette Schwartzberg as Mama Ginelli



Details
Name:Thinner (1996) 720p BluRay x264 Dual Audio [Hindi DD5.1 - English DD5.1] - Esub ~ Ranvijay
Description:
Thinner (1996) 720p BluRay x264 Dual Audio [Hindi DD5.1 - English DD5.1] - Esub ~ Ranvijay

 
Thanks To Team Rainbow For Hindi Audio

  General
Format                                   : Matroska
Format version                           : Version 4 / Version 2
File size                                : 1.30 GiB
Duration                                 : 1 h 32 min
Overall bit rate                         : 2 010 kb/s
Movie name                               : Thinner (1996) 720p BluRay x264 Dual Audio [Hindi DD5.1 - English DD5.1] - Esub ~ Ranvijay

Video
ID                                       : 1
Format                                   : AVC
Format/Info                              : Advanced Video Codec
Duration                                 : 1 h 32 min
Bit rate                                 : 1 550 kb/s
Width                                    : 1 280 pixels
Height                                   : 720 pixels
Display aspect ratio                     : 16:9
Frame rate mode                          : Constant
Frame rate                               : 23.976 (24000/1001) FPS
Color space                              : YUV
Chroma subsampling                       : 4:2:0
Bit depth                                : 8 bits
Scan type                                : Progressive
Bits/(Pixel*Frame)                       : 0.070
Stream size                              : 1.00 GiB (77%)
Title                                    : ~Ranvijay~

Audio #1
ID                                       : 2
Format                                   : AC-3
Format/Info                              : Audio Coding 3
Codec ID                                 : A_AC3
Duration                                 : 1 h 31 min
Bit rate mode                            : Constant
Bit rate                                 : 224 kb/s
Channel(s)                               : 6 channels
Channel positions                        : Front: L C R, Side: L R, LFE
Sampling rate                            : 48.0 kHz
Frame rate                               : 31.250 FPS (1536 SPF)
Bit depth                                : 16 bits
Compression mode                         : Lossy
Delay relative to video                  : 12 s 0 ms
Stream size                              : 147 MiB (11%)
Title                                    : ~Ranvijay~
Language                                 : Hindi
Service kind                             : Complete Main
Default                                  : Yes
Forced                                   : Yes

Audio #2
ID                                       : 3
Format                                   : AC-3
Format/Info                              : Audio Coding 3
Codec ID                                 : A_AC3
Duration                                 : 1 h 32 min
Bit rate mode                            : Constant
Bit rate                                 : 224 kb/s
Channel(s)                               : 2 channels
Channel positions                        : Front: L R
Sampling rate                            : 48.0 kHz
Frame rate                               : 31.250 FPS (1536 SPF)
Bit depth                                : 16 bits
Compression mode                         : Lossy
Stream size                              : 149 MiB (11%)
Title                                    : ~Ranvijay~
Language                                 : English
Service kind                             : Complete Main
Default                                  : No
Forced                                   : No

Text
ID                                       : 4
Format                                   : PGS
Muxing mode                              : zlib
Codec ID                                 : S_HDMV/PGS
Codec ID/Info                            : Picture based subtitle format used on BDs/HD-DVDs
Duration                                 : 1 h 25 min
Bit rate                                 : 28.5 kb/s
Count of elements                        : 1721
Stream size                              : 17.5 MiB (1%)
Title                                    : ~Ranvijay~
Language                                 : English
Default                                  : Yes
Forced                                   : Yes


McUjv.th.png Mc7fM.th.png Mcv93.th.jpg McxHE.th.jpg Mc2Od.th.jpg McAm9.th.jpg McBRt.th.jpg McOx8.th.jpg McgGJ.th.jpg McuPg.th.jpg MckED.th.jpg Mc8f5.th.jpg Mcfjm.th.jpg MchIA.th.jpg
Category:Movies > Hollywood Dub
Lang:Hindi
Total Size:1.32 GB



|| Download This Movie Via Single Resumable Links Size: 1.30 GB ||

Direct-1 Google Drive | Direct-2 | Direct-3 |

Watch Online Click Here

Post a Comment

0 Comments