Touch Chesi Chudu (2018) Uncut 720p HDRip x264 Dual Audio [Hindi Cleaned + Telugu] BabaHD


Poster


iMDB
Imdb Picture Title: Touch Chesi Chudu
Year: 2018
Runtime: 147 minutes
Votes: 160
Rating: 5.1/10
Language: Telugu
Country: India
All Genres: Action
Plot Outline: Karthikeya (Ravi Teja) is a Police Officer who struggles to maintain a balance between his personal and professional life.
Director: Vikram Sirikonda
Writing By: Sreenu Bosani,A. Deepakraj,Vikram Sirikonda,Vakkantham Vamsi,
Produced By: Nallamalupu Bujji,Vallabhaneni Vamsi Mohan,
Music: Pritam Chakraborty Marc D. Muse Ashiesh Pandit Mani Sharma
Cast:
Ravi Teja as Karthikeya
Raashi Khanna as Pushpa
Seerat Kapoor as Divya
Freddy Daruwala as
Murli Sharma as
Aaradhya as
Feroz Abbasi as
Ajay as
Ananth as
Anjali as



Details
Name:Touch Chesi Chudu (2018) Uncut 720p HDRip x264 Dual Audio [Hindi Cleaned + Telugu] BabaHD
Description:
Touch Chesi Chudu (2018) Uncut 720p HDRip x264 Dual Audio [Hindi Cleaned + Telugu] BabaHD

Power Unlimited 2 (2018)


Format                                   : Matroska
Format version                           : Version 4 / Version 2
File size                                : 1.40 GiB
Duration                                 : 2 h 21 min
Overall bit rate                         : 1 419 kb/s

Video
ID                                       : 1
Format                                   : AVC
Format/Info                              : Advanced Video Codec
Format profile                           : Main@L4
Format settings                          : CABAC / 4 Ref Frames
Format settings, CABAC                   : Yes
Format settings, ReFrames                : 4 frames
Codec ID                                 : V_MPEG4/ISO/AVC
Duration                                 : 2 h 21 min
Bit rate                                 : 1 200 kb/s
Width                                    : 1 280 pixels
Height                                   : 536 pixels
Display aspect ratio                     : 2.40:1
Frame rate mode                          : Constant
Frame rate                               : 23.976 (24000/1001) FPS
Color space                              : YUV
Chroma subsampling                       : 4:2:0
Bit depth                                : 8 bits
Scan type                                : Progressive
Bits/(Pixel*Frame)                       : 0.073
Stream size                              : 1.18 GiB (84%)
Writing library                          : x264 core 148 r2708 86b7198
Default                                  : Yes
Forced                                   : No
Color range                              : Limited
Color primaries                          : BT.709
Transfer characteristics                 : BT.709
Matrix coefficients                      : BT.709

Audio #1
ID                                       : 2
Format                                   : MPEG Audio
Format version                           : Version 1
Format profile                           : Layer 3
Codec ID                                 : A_MPEG/L3
Codec ID/Hint                            : MP3
Duration                                 : 2 h 21 min
Bit rate mode                            : Constant
Bit rate                                 : 128 kb/s
Channel(s)                               : 2 channels
Sampling rate                            : 44.1 kHz
Frame rate                               : 38.281 FPS (1152 SPF)
Compression mode                         : Lossy
Delay relative to video                  : -23 ms
Stream size                              : 130 MiB (9%)
Writing library                          : LAME3.99.5
Language                                 : Hindi
Default                                  : Yes
Forced                                   : No

Audio #2
ID                                       : 3
Format                                   : AAC
Format/Info                              : Advanced Audio Codec
Format profile                           : LC
Codec ID                                 : A_AAC-2
Duration                                 : 2 h 21 min
Bit rate                                 : 96.0 kb/s
Channel(s)                               : 2 channels
Channel positions                        : Front: L R
Sampling rate                            : 44.1 kHz
Frame rate                               : 43.066 FPS (1024 SPF)
Compression mode                         : Lossy
Delay relative to video                  : -23 ms
Stream size                              : 97.3 MiB (7%)
Language                                 : Telugu
Default                                  : No
Forced                                   : No


Y0ZOn.th.png Y0vmq.th.png Y0PIU.th.png Y0xxW.th.png Y07SQ.th.png
Category:Movies > South Dub
Lang:Hindi
Total Size:1.40 GB






|| Download This Movie Via Single Resumable Links Size: 1.40 GB ||

Direct-1 Google Drive | Direct-2 | Direct-3 |

Watch Online Click Here

Post a Comment

0 Comments