U 571 (2000) BluRay 720p x264 {Dual Audio} [Hindi Org-English] - Hon3yHD


Poster


iMDB
Imdb Picture Title: U-571
Year: 2000
Runtime: 116 minutes
Votes: 69111
Rating: 6.6/10
Language: English, German
Country: France, USA
All Genres: Action, War
Plot Outline: A German submarine is boarded by disguised American submariners trying to capture their Enigma cipher machine.
Tagline: You won't come up for air until it's over!
Director: Jonathan Mostow
Writing By: Jonathan Mostow,Jonathan Mostow,Sam Montgomery,David Ayer,
Produced By: Alan Collis,Dino De Laurentiis,Martha De Laurentiis,Hal Lieberman,Lucio Trentini,
Music: Richard Marvin
Cast:
Matthew McConaughey as Lt. Andrew Tyler
Bill Paxton as Lt. Cmdr. Mike Dahlgren
Harvey Keitel as CPO Henry Klough
Jon Bon Jovi as Lt. Pete Emmett
David Keith as Maj. Matthew Coonan
Thomas Kretschmann as Capt.-Lt. Gunther Wassner
Jake Weber as Lt. Hirsch
Jack Noseworthy as Seaman Bill Wentz
Tom Guiry as Seaman Ted 'Trigger' Fitzgerald
Will Estes as Seaman Ronald 'Rabbit' Parker
Trailers:
U-571



Details
Name:U-571.2000.BluRay.720p.x264.{Dual.Audio}.[Hindi Org-English].-.Hon3yHD
Description:
U 571 (2000) BluRay 720p x264 {Dual Audio} [Hindi Org-English] - Hon3yHD


Format                      : Matroska
Format version              : Version 4 / Version 2
File size                   : 1.18 GiB
Duration                    : 1 h 56 min
Overall bit rate            : 1 458 kb/s
Movie name                  : ~Hammer~

Video
ID                          : 1
Format                      : AVC
Format/Info                 : Advanced Video Codec
Format profile              : High@L4.1
Format settings             : CABAC / 8 Ref Frames
Format settings, CABAC      : Yes
Format settings, ReFrames   : 8 frames
Codec ID                    : V_MPEG4/ISO/AVC
Duration                    : 1 h 56 min
Bit rate                    : 1 200 kb/s
Width                       : 1 280 pixels
Height                      : 544 pixels
Display aspect ratio        : 2.35:1
Frame rate mode             : Constant
Frame rate                  : 23.976 (24000/1001) FPS

Audio #1
ID                          : 2
Format                      : AAC
Format/Info                 : Advanced Audio Codec
Format profile              : LC
Codec ID                    : A_AAC-2
Duration                    : 1 h 56 min
Bit rate                    : 128 kb/s
Channel(s)                  : 2 channels
Channel positions           : Front: L R
Sampling rate               : 48.0 kHz
Frame rate                  : 46.875 FPS (1024 SPF)
Compression mode            : Lossy
Delay relative to video     : -21 ms
Stream size                 : 107 MiB (9%)
Title                       : Stereo
Language                    : Hindi

Audio #2
ID                          : 3
Format                      : AAC
Format/Info                 : Advanced Audio Codec
Format profile              : LC
Codec ID                    : A_AAC-2
Duration                    : 1 h 56 min
Bit rate                    : 128 kb/s
Channel(s)                  : 2 channels
Channel positions           : Front: L R
Sampling rate               : 48.0 kHz
Frame rate                  : 46.875 FPS (1024 SPF)
Compression mode            : Lossy
Delay relative to video     : -21 ms
Stream size                 : 106 MiB (9%)
Title                       : Stereo
Language                    : English

       
Category:Movies > Hollywood Dub
Lang:Hindi
Total Size:1.18 GB





|| Download This Movie Via Single Resumable Links Size: 1.18 GB ||

Direct-1 Google Drive | Direct-2 | Direct-3 |

Watch Online Click Here

Post a Comment

0 Comments