Union Leader (2017) Hindi 720p AMZN-DL x264 AAC DD2.0 - TeamTelly.Exclusive


Poster


iMDB
Title: Union Leader
Year: 2017
Runtime: 106 minutes
Votes: 1174
Rating: 8.1/10
Language: Hindi
Country: Canada, India
All Genres: Drama
Plot Outline: Resigned to his fate as a worker in a notoriously shoddy chemical plant, Jay realizes that he must not only find a way to support his family, but also overcome grave social and legal injustice in the system.
Director: Sanjay Patel
Writing By: Sanjay Patel,John Winston Rainey,Sanjay Patel,Chinmay Sankrat,Sanjay Patel,
Produced By: Chandresh Bhatt,Dhangauri Patel,Dhirubhai Patel,Haresh Patel,Sanjay Patel,
Music: Darren Fung
Cast:
Rahul Bhat as Jay
Tillotama Shome as Geeta
Zala Akash as
Prashant Barot as Satish
Jay Bhatt as Lalit
Mehul Buch as Ketul
Jigar Bundela as Nishant
Haresh Daghiya as Prakash
Chetan Daiya as Bala
Kalpana Gagdekar as Vimla



Details
Name:Union Leader.2017.x264.720p.AmazonDL.Rip.AVC.DD2.0.TeamTelly.Exclusive
Description:
Union Leader (2017) Hindi 720p AMZN-DL x264 AAC DD2.0 - TeamTelly.Exclusive




Format                                   : MPEG-4
Format profile                           : Base Media / Version 2
Codec ID                                 : mp42 (isom/iso2/avc1/mp41)
File size                                : 1.49 GiB
Duration                                 : 1 h 41 min
Overall bit rate mode                    : Variable
Overall bit rate                         : 2 113 kb/s
Encoded date                             : UTC 2018-09-08 02:07:33
Tagged date                              : UTC 2018-09-08 02:07:33
Writing application                      : HandBrake 1.1.1 2018061800

Video
ID                                       : 1
Format                                   : AVC
Format/Info                              : Advanced Video Codec
Format profile                           : Main@L3.1
Format settings                          : CABAC / 4 Ref Frames
Format settings, CABAC                   : Yes
Format settings, ReFrames                : 4 frames
Codec ID                                 : avc1
Codec ID/Info                            : Advanced Video Coding
Duration                                 : 1 h 41 min
Bit rate                                 : 1 914 kb/s
Width                                    : 1 280 pixels
Height                                   : 644 pixels
Display aspect ratio                     : 1.992
Frame rate mode                          : Variable
Frame rate                               : 23.976 (24000/1001) FPS
Minimum frame rate                       : 23.974 FPS
Maximum frame rate                       : 23.981 FPS
Color space                              : YUV
Chroma subsampling                       : 4:2:0
Bit depth                                : 8 bits
Scan type                                : Progressive
Bits/(Pixel*Frame)                       : 0.097
Stream size                              : 1.35 GiB (91%)
Writing library                          : x264 core 155 r2901 7d0ff22
Color range                              : Limited
Color primaries                          : BT.709
Transfer characteristics                 : BT.709
Matrix coefficients                      : BT.709

Audio
ID                                       : 2
Format                                   : AAC
Format/Info                              : Advanced Audio Codec
Format profile                           : LC
Codec ID                                 : mp4a-40-2
Duration                                 : 1 h 41 min
Bit rate mode                            : Variable
Bit rate                                 : 192 kb/s
Channel(s)                               : 2 channels
Channel(s)_Original                      : 6 channels
Channel positions                        : Front: L C R, Side: L R, LFE
Sampling rate                            : 48.0 kHz
Frame rate                               : 46.875 FPS (1024 SPF)
Compression mode                         : Lossy
Stream size                              : 139 MiB (9%)
Title                                    : Surround / Surround
Default                                  : Yes
Alternate group                          : 1
Encoded date                             : UTC 2018-09-08 02:07:33
Tagged date                              : UTC 2018-09-08 02:07:33



MX8pd.th.png MXhv9.th.png MXueE.th.png MXdC8.th.png MXTdt.th.png MX0aJ.th.png
Category:Movies > Bollywood
Lang:Hindi
Total Size:1.49 GB



:download:

|| Download This Movie Via Single Resumable Links Size: 1.49 GB ||

Direct-1 Google Drive | Direct-2 | Direct-3 |

Watch Online Click Here

Post a Comment

0 Comments