WWE Hell In A Cell (2018) 480p PPV WEBDL H264 AAC DD2.0 - HEEL


Poster


iMDB
Title: WWE Hell in a Cell
Year: 2018
Runtime: 222 minutes
Language: English
All Genres: Action, Sport

Cast:
Joe Anoa'i as Roman Reigns
Adam Scherr as Braun Strowman
A.J. Styles as AJ Styles
Joe Seanoa as Samoa Joe
Benjamin Alves as Himself
Christian Bautista as Himself
Brie Bella as Brie Bela
Kim Chiu as Kim Chiu - Pinoy Lead Commentators
Michael Coulthard as Michael Cole
Anne Curtis as Anne Curtis - 205Live English Lead Commentators



Details
Name:WWE.Hell.In.A.Cell.2018.PPV.WEB.h264-HEEL
Description:
WWE Hell In A Cell 16th September 2018

 

Format                                   : MPEG-4
Format profile                           : Base Media
Codec ID                                 : isom (isom/iso2/avc1/mp41)
File size                                : 2.78 GiB
Duration                                 : 3 h 40 min
Overall bit rate mode                    : Variable
Overall bit rate                         : 1 804 kb/s
Writing application                      : Lavf58.2.103

Video
ID                                       : 1
Format                                   : AVC
Format/Info                              : Advanced Video Codec
Format profile                           : Main@L3.1
Format settings                          : CABAC / 4 Ref Frames
Format settings, CABAC                   : Yes
Format settings, ReFrames                : 4 frames
Codec ID                                 : avc1
Codec ID/Info                            : Advanced Video Coding
Duration                                 : 3 h 40 min
Duration_FirstFrame                      : 10 ms
Bit rate mode                            : Constant
Bit rate                                 : 1 704 kb/s
Width                                    : 896 pixels
Height                                   : 504 pixels
Display aspect ratio                     : 16:9
Frame rate mode                          : Constant
Frame rate                               : 29.970 (30000/1001) FPS
Color space                              : YUV
Chroma subsampling                       : 4:2:0
Bit depth                                : 8 bits
Scan type                                : Progressive
Bits/(Pixel*Frame)                       : 0.126
Stream size                              : 2.63 GiB (94%)

Audio
ID                                       : 2
Format                                   : AAC
Format/Info                              : Advanced Audio Codec
Format profile                           : LC
Codec ID                                 : mp4a-40-2
Duration                                 : 3 h 40 min
Bit rate mode                            : Variable
Bit rate                                 : 93.5 kb/s
Maximum bit rate                         : 96.4 kb/s
Channel(s)                               : 2 channels
Channel positions                        : Front: L R
Sampling rate                            : 48.0 kHz
Frame rate                               : 46.875 FPS (1024 SPF)
Compression mode                         : Lossy
Stream size                              : 148 MiB (5%)
Language                                 : English
Default                                  : Yes
Alternate group                          : 1

Text
ID                                       : 1-CC1
Format                                   : EIA-608
Muxing mode                              : SCTE 128 / DTVCC Transport
Muxing mode, more info                   : Muxed in Video #1
Duration                                 : 3 h 40 min
Bit rate mode                            : Constant
Stream size                              : 0.00 Byte (0%)
Encoded stream size                      : 0.00 Byte (0%)
CaptionServiceName                       : CC1

 
Category:TV > Sports
Lang:English  English
Total Size:2.78 GB



|| Download This Tv Show Via Single Resumable Links Size: 2.78 GB ||

Direct-1 Google Drive | Direct-2 | Direct-3 |

Watch Online Click Here

Post a Comment

0 Comments