XXX: Uncensored Hindi S01 720p WEB-DL x264 AAC DD2.0 ~TeamCrazy


Poster


iMDB
maxresdefault.jpg Title: XXX: Uncensored
Year: 2018
Language: Hindi
Director: Ken Ghosh

Cast:
Aparnaa Bajpai ">Aparnaa Bajpai as
Rithvik Dhanjani as
Kyra Dutt as
Ankit Gera as
Karan Jotwani as
Shantanu Maheshwari as
Aadar Malik as
Aparna Sharma ">Aparna Sharma as



Details
Name:XXX: Uncensored Hindi S01 720p WEB-DL x264 AAC DD2.0 ~TeamCrazy
Description:
XXX: Uncensored Hindi S01 720p WEB-DL x264 AAC DD2.0 ~TeamCrazy


fc1fba4de903c172476f5229cf5445a1.jpg

Source :- TeamTelly


Format                                   : MPEG-4
Format profile                           : Base Media
Codec ID                                 : isom (isom/iso2/avc1/mp41)
File size                                : 244 MiB
Duration                                 : 25 min 54 s
Overall bit rate                         : 1 318 kb/s
Writing application                      : Lavf58.12.100

Video
ID                                       : 1
Format                                   : AVC
Format/Info                              : Advanced Video Codec
Format profile                           : High@L3.1
Format settings                          : CABAC / 4 Ref Frames
Format settings, CABAC                   : Yes
Format settings, ReFrames                : 4 frames
Codec ID                                 : avc1
Codec ID/Info                            : Advanced Video Coding
Duration                                 : 25 min 54 s
Bit rate                                 : 1 261 kb/s
Width                                    : 1 280 pixels
Height                                   : 720 pixels
Display aspect ratio                     : 16:9
Frame rate mode                          : Constant
Frame rate                               : 25.000 FPS
Color space                              : YUV
Chroma subsampling                       : 4:2:0
Bit depth                                : 8 bits
Scan type                                : Progressive
Bits/(Pixel*Frame)                       : 0.055
Stream size                              : 233 MiB (95%)
Writing library                          : x264 core 148 r2643 5c65704

Audio
ID                                       : 2
Format                                   : AAC
Format/Info                              : Advanced Audio Codec
Format profile                           : LC
Codec ID                                 : mp4a-40-2
Duration                                 : 25 min 54 s
Duration_LastFrame                       : -17 ms
Bit rate mode                            : Constant
Bit rate                                 : 56.0 kb/s
Channel(s)                               : 2 channels
Channel(s)_Original                      : 1 channel
Channel positions                        : Front: C
Sampling rate                            : 44.1 kHz
Frame rate                               : 43.066 FPS (1024 SPF)
Compression mode                         : Lossy
Stream size                              : 10.4 MiB (4%)
Default                                  : Yes
Alternate group                          : 1



2f1d87895d7fbf430c20926e4d10cbcd.th.png 6f435590fee0efb35d7f45c0a88bc8f1.th.png 0ae4d3e19684fc1b0c2acf4e97a6324c.th.png 547e66681a0e94934d97ddf742ffd3ae.th.png 7ea7959de8428d5aa9a357fac2a484da.th.png 786c197cc9168736c4cb07636959ad41.th.png 016d2aba872dd8c19a4d5015b7c369f1.th.png 12de62d33914ae1cdff108ff8c8adea7.th.png 9ef34a5a9be9018df895028b5d57909e.th.png 8a10fbfad539fba40ebf34623dd0732a.th.png 0aa51a830ea517031562488e7af64940.th.png e89ba9d049f7eae5944a1286ec0c0be9.th.png ac15f16b70fca0fd096cbcbfd5d576f5.th.png 058b15c21c3ae0c33fcb68a546808ae1.th.png 9e7c61d4e07ce40c92d4ea7948fb938a.th.png e8d5f9dea8abff49fe5a065979092f0c.th.png 0db04de08f3b26ac79666811e54beab1.th.png fce3c03a7344b3b2a9d0285840cf2be1.th.png 4784c6dec09e34b4a818c2f420c0c7d5.th.png 53c80509f2c1af7438e35817645f151d.th.png cedd98608d5a700a4caf155d43b78f66.th.png ae0f91584d0d6c4c50d661c7e4d2d311.th.png
Category:TV > Indian
Lang:Hindi
Total Size:1.01 GB





|| Download This Tv Show Via Single Resumable Links Size: 1.01 GB ||

Direct-1 Google Drive |

  PassWord :- Sworld4u

Post a Comment

0 Comments