1971 Beyond Borders (2017) 720p UnCut HDRip x264 M.Audio [Hindi + Telugu + Malayalam] - 1.4GB


Poster


iMDB
Imdb Picture Title: 1971: Beyond Borders
Year: 2017
Runtime: 135 minutes
Votes: 2421
Rating: 6.6/10
Language: Malayalam
Country: India
All Genres: Action, War
Plot Outline: The story of the 1971 war between India and Pakistan is told from the perspective of a soldier.
Director: Major Ravi
Writing By: Shiju Nambiath,Major Ravi,
Produced By: Haneef Mohammed,
Music: Najim Arshad Rahul Subrahmanian Gopi Sunder Siddharth Vipin
Plot:
The story of the 1971 war between India and Pakistan is told from the perspective of a soldier.

Cast:
Mohanlal as Colonel Mahadevan / Major Sahadevan
Allu Sirish as
Asha Sharath as
Renji Panicker as
Sudheer Karamana as
Aravind Haridas as Soldier
Priyanka Agrawal as wife of Lt. Col. Raja
Arunoday Singh as Lt. Col. Raja



Details
Name:1971 Beyond Borders (2018) 720p - UnCut - HDRip - x264 - [Hindi + Telugu + Malayalam] - 1.4GB -...
Description:
1971 Beyond Borders (2017) 720p UnCut HDRip x264 M.Audio [Hindi + Telugu + Malayalam] - 1.4GB



Format                                   : Matroska
Format version                           : Version 4 / Version 2
File size                                : 1.42 GiB
Duration                                 : 2 h 14 min
Overall bit rate                         : 1 512 kb/s

Video
ID                                       : 1
Format                                   : AVC
Format/Info                              : Advanced Video Codec
Format profile                           : High@L4.1
Format settings                          : CABAC / 4 Ref Frames
Format settings, CABAC                   : Yes
Format settings, ReFrames                : 4 frames
Codec ID                                 : V_MPEG4/ISO/AVC
Duration                                 : 2 h 14 min
Bit rate                                 : 1 133 kb/s
Width                                    : 1 280 pixels
Height                                   : 544 pixels
Display aspect ratio                     : 2.35:1
Frame rate mode                          : Constant
Frame rate                               : 25.000 FPS
Color space                              : YUV
Chroma subsampling                       : 4:2:0
Bit depth                                : 8 bits
Scan type                                : Progressive
Bits/(Pixel*Frame)                       : 0.065
Stream size                              : 1.06 GiB (75%)
Writing library                          : x264 core 155 r2901 7d0ff22
Default                                  : Yes
Forced                                   : No
Color range                              : Limited
Color primaries                          : BT.709
Transfer characteristics                 : BT.709
Matrix coefficients                      : BT.709

Audio #1
ID                                       : 2
Format                                   : MPEG Audio
Format version                           : Version 1
Format profile                           : Layer 3
Format settings                          : Joint stereo / MS Stereo
Codec ID                                 : A_MPEG/L3
Codec ID/Hint                            : MP3
Duration                                 : 2 h 14 min
Bit rate mode                            : Constant
Bit rate                                 : 128 kb/s
Channel(s)                               : 2 channels
Sampling rate                            : 44.1 kHz
Frame rate                               : 38.281 FPS (1152 SPF)
Compression mode                         : Lossy
Delay relative to video                  : -23 ms
Stream size                              : 123 MiB (8%)
Language                                 : Hindi
Default                                  : Yes
Forced                                   : No

Audio #2
ID                                       : 3
Format                                   : MPEG Audio
Format version                           : Version 1
Format profile                           : Layer 3
Format settings                          : Joint stereo / MS Stereo
Codec ID                                 : A_MPEG/L3
Codec ID/Hint                            : MP3
Duration                                 : 2 h 14 min
Bit rate mode                            : Constant
Bit rate                                 : 128 kb/s
Channel(s)                               : 2 channels
Sampling rate                            : 44.1 kHz
Frame rate                               : 38.281 FPS (1152 SPF)
Compression mode                         : Lossy
Delay relative to video                  : -23 ms
Stream size                              : 123 MiB (8%)
Language                                 : Telugu
Default                                  : No
Forced                                   : No

Audio #3
ID                                       : 4
Format                                   : AAC
Format/Info                              : Advanced Audio Codec
Format profile                           : LC
Codec ID                                 : A_AAC-2
Duration                                 : 2 h 14 min
Bit rate                                 : 127 kb/s
Channel(s)                               : 2 channels
Channel positions                        : Front: L R
Sampling rate                            : 44.1 kHz
Frame rate                               : 43.066 FPS (1024 SPF)
Compression mode                         : Lossy
Delay relative to video                  : -23 ms
Stream size                              : 122 MiB (8%)
Language                                 : Malayalam
Default                                  : No
Forced                                   : No


Category:Movies > South Dub
Lang:Hindi
Total Size:1.42 GB



|| Download This Movie Via Single Resumable Links Size: 1.42 GB ||

Direct-1 Google Drive | Direct-2 | Direct-3 |

Watch Online Click Here

Post a Comment

0 Comments