Behen Hogi Teri (2017) Hindi 1080p WEB-HD x264 AAC


Poster


iMDB
Imdb Picture Title: Behen Hogi Teri
Year: 2017
Runtime: 128 minutes
Votes: 86
Rating: 7.0/10
Language: Hindi
Country: India
All Genres: Comedy
Plot Outline: Gattu (Rajkummar Rao) has a problem, he loves Binny (Shruti Haasan) who lives in their neighborhood. But everyone says that the girls of the neighborhood should be treated as own sister or ...
Director: Ajay Pannalal
Writing By: Sanchit Gupta,Vinit Vyas,
Produced By: Hareen Doshi,Behzad Khambata,Adib Malik,Yogesh Markande,Anshul Mohan,Geetika Sood,Nitin Upadhyaya,
Plot:
Gattu (Rajkummar Rao) has a problem, he loves Binny (Shruti Haasan) who lives in their neighborhood. But everyone says that the girls of the neighborhood should be treated as own sister or mother. So no one considers Gattu as a potential groom for Binny, rather gives him tasks which are usually done by a brother for his sister. Binny is also very mischievous, she is not committing to Gattu entirely. Now we have to watch how Gattu convinces both Binny and the neighborhood.
- Written by Niaz Islam Arif
Cast:
Reena Aggarwal as
Gulshan Grover as
Gautam Gulati as
Shruti Haasan as
Darshan Jariwala as
Ninad Kamat as
Ranjeet as
Rajkummar Rao as
Meenakshi Sethi as
Herry Tangiri as Bhura



Details
Name:Behen Hogi Teri (2017) Hindi 1080p WEB-HD x264 AAC
Description:
Behen Hogi Teri (2017) Hindi 1080p WEB-HD x264 AAC


Format                                   : Matroska
Format version                           : Version 2
File size                                : 999 MiB
Duration                                 : 1 h 59 min
Overall bit rate                         : 1 165 kb/s
Encoded date                             : UTC 2017-09-01 20:39:11
Writing application                      : mkvmerge v10.0.0 ('To Drown In You') 64bit
Writing library                          : libebml v1.3.4 + libmatroska v1.4.5

Video
ID                                       : 1
Format                                   : AVC
Format/Info                              : Advanced Video Codec
Format profile                           : High@L4
Format settings                          : CABAC / 4 Ref Frames
Format settings, CABAC                   : Yes
Format settings, ReFrames                : 4 frames
Codec ID                                 : V_MPEG4/ISO/AVC
Duration                                 : 1 h 59 min
Bit rate                                 : 1 099 kb/s
Width                                    : 1 280 pixels
Height                                   : 536 pixels
Display aspect ratio                     : 2.40:1
Frame rate mode                          : Constant
Frame rate                               : 25.000 FPS
Color space                              : YUV
Chroma subsampling                       : 4:2:0
Bit depth                                : 8 bits
Scan type                                : Progressive
Bits/(Pixel*Frame)                       : 0.064
Stream size                              : 943 MiB (94%)
Writing library                          : x264 core 148 r2744 b97ae06
Default                                  : Yes
Forced                                   : No

Audio
ID                                       : 2
Format                                   : AAC
Format/Info                              : Advanced Audio Codec
Format profile                           : HE-AAC / LC
Format settings                          : Explicit
Codec ID                                 : A_AAC-2
Duration                                 : 1 h 59 min
Bit rate                                 : 63.8 kb/s
Channel(s)                               : 2 channels
Channel positions                        : Front: L R
Sampling rate                            : 48.0 kHz / 24.0 kHz
Frame rate                               : 23.438 FPS (1024 SPF)
Compression mode                         : Lossy
Delay relative to video                  : 31 ms
Stream size                              : 54.8 MiB (5%)
Language                                 : Hindi
Default                                  : Yes
Forced                                   : No

https://2.bp.blogspot.com/-MUPqScVQUZs/W17D5J5TsdI/AAAAAAAAIs4/Q6OpyI4MGFUDIlFghAPyc9tufWLhnFuQQCLcBGAs/s640/1.jpg
https://2.bp.blogspot.com/-Z5RouoPZDrM/W17D5g9y1fI/AAAAAAAAIs8/upFWKKxR_7cuBcwHu8UC7K4OK8J1I9khgCLcBGAs/s640/2.jpg
https://4.bp.blogspot.com/-mzVFdtzsWcY/W17D53KgUtI/AAAAAAAAItA/9AD475lQaf8f116d15iFEPb2FZ-daEnYgCLcBGAs/s640/3.jpg
Category:Movies > Bollywood
Lang:Hindi
Total Size:1.82 GB



|| Download This Movie Via Single Resumable Links Size: 1.82 GB ||

Direct-1 Google Drive | Direct-2 | Direct-3 |

Watch Online Click Here

Post a Comment

0 Comments