Edtv (1999) BluRay 1080p 10Bit HEVC Dual Audio [Hindi DD 5.1 640 Kbps - English DD 5.1 640 Kbps] [Dzrg Torrents®]



Poster


iMDB
Title: Edtv
Year: 1999
Runtime: 122 minutes
Votes: 38317
Rating: 6.1/10
Language: English
Tagline: Good morning! You're live on EDtv
Director: Ron Howard
Writing By: Émile Gaudreault,Sylvie Bouchard,Lowell Ganz,Babaloo Mandel,
Produced By: Jeffrey T. Barabe,Brian Grazer,Todd Hallowell,Ron Howard,Aldric La'auli Porter,Michel Roy,Richard Sadler,Louisa Velis,
Music: Randy Edelman
Cast:
Geoffrey Blake as Keith
Gail Boggs as Wife
Jenna Byrne as Felicia
Merrin Dungey as Ms. Seaver
Ian Gomez as McIlvaine
Gavin Grazer as Clint
Chris Hogan as Paul
Arianna Huffington as Panel Member
Larry Flash Jenkins as Husband
Wendle Josepher as Rita



Details
Name:Edtv (1999) BluRay 1080p 10Bit HEVC Dual Audio [Hindi DD 5.1 640 Kbps - English DD 5.1 640 Kbps] [Dzrg Torrents®]
Description:
Edtv (1999) BluRay 1080p 10Bit HEVC Dual Audio [Hindi DD 5.1 640 Kbps - English DD 5.1 640 Kbps] [Dzrg Torrents®]

a10c378a3ceb4fcd541fc3baffc66dd8.png


General
Format                                   : Matroska
Format version                           : Version 4
File size                                : 4.67 GiB
Duration                                 : 2 h 3 min
Overall bit rate                         : 5 422 kb/s
Movie name                               : Edtv (1999) 1080p BluRay x265 10Bit HEVC Dual Audio [Hindi DD 5.1 640 Kbps - English DD 5.1 640 Kbps] [Dzrg Torrents®].mkv
Encoded date                             : UTC 2018-10-15 13:21:12
Writing application                      : mkvmerge v13.0.0 ('The Juggler') 64bit
Writing library                          : libebml v1.3.4 + libmatroska v1.4.5 



Video
ID                                       : 1
Format                                   : HEVC
Format/Info                              : High Efficiency Video Coding
Format profile                           : Main 10@L4@Main
Codec ID                                 : V_MPEGH/ISO/HEVC
Duration                                 : 2 h 3 min
Bit rate                                 : 4 141 kb/s
Width                                    : 1 920 pixels
Height                                   : 1 040 pixels
Display aspect ratio                     : 1.85:1
Frame rate mode                          : Constant
Frame rate                               : 23.976 (24000/1001) FPS
Color space                              : YUV
Chroma subsampling                       : 4:2:0
Bit depth                                : 10 bits
Bits/(Pixel*Frame)                       : 0.086
Stream size                              : 3.56 GiB (76%)
Title                                    : Edtv (1999) 1080p BluRay x265 10Bit HEVC Dual Audio [Hindi DD 5.1 640 Kbps - English DD 5.1 640 Kbps] [Dzrg Torrents®].mkv
Writing library                          : x265 2.6:[Windows][GCC 7.3.0][64 bit] 10bit
Language                                 : Hindi
Default                                  : Yes
Forced                                   : No
Color range                              : Limited
Color primaries                          : BT.709
Transfer characteristics                 : BT.709
Matrix coefficients                      : BT.709



Audio #1
ID                                       : 2
Format                                   : AC-3
Format/Info                              : Audio Coding 3
Commercial name                          : Dolby Digital
Codec ID                                 : A_AC3
Duration                                 : 2 h 3 min
Bit rate mode                            : Constant
Bit rate                                 : 640 kb/s
Channel(s)                               : 6 channels
Channel layout                           : L R C LFE Ls Rs
Sampling rate                            : 48.0 kHz
Frame rate                               : 31.250 FPS (1536 SPF)
Bit depth                                : 16 bits
Compression mode                         : Lossy
Stream size                              : 563 MiB (12%)
Title                                    : [Hindi DD 5.1 640 Kbps] [Dzrg Torrents®]
Language                                 : Hindi
Service kind                             : Complete Main
Default                                  : Yes
Forced                                   : No 



Audio #2
ID                                       : 3
Format                                   : AC-3
Format/Info                              : Audio Coding 3
Commercial name                          : Dolby Digital
Codec ID                                 : A_AC3
Duration                                 : 2 h 3 min
Bit rate mode                            : Constant
Bit rate                                 : 640 kb/s
Channel(s)                               : 6 channels
Channel layout                           : L R C LFE Ls Rs
Sampling rate                            : 48.0 kHz
Frame rate                               : 31.250 FPS (1536 SPF)
Bit depth                                : 16 bits
Compression mode                         : Lossy
Stream size                              : 564 MiB (12%)
Title                                    : [English DD 5.1 640 Kbps] [Dzrg Torrents®]
Language                                 : English
Service kind                             : Complete Main
Default                                  : No
Forced                                   : No



Text
ID                                       : 4
Format                                   : ASS
Codec ID                                 : S_TEXT/ASS
Codec ID/Info                            : Advanced Sub Station Alpha
Duration                                 : 1 h 54 min
Bit rate                                 : 146 b/s
Count of elements                        : 2105
Compression mode                         : Lossless
Stream size                              : 123 KiB (0%)
Language                                 : English
Default                                  : Yes
Forced                                   : No

Menu
00:00:00.000                             : :00:00:00.000
00:10:04.229                             : :00:10:04.229
00:19:48.396                             : :00:19:48.396
00:30:14.104                             : :00:30:14.104
00:40:06.404                             : :00:40:06.404
00:50:34.573                             : :00:50:34.573
01:00:27.791                             : :01:00:27.749
01:10:06.828                             : :01:10:06.828
01:19:58.377                             : :01:19:58.252
01:29:54.431                             : :01:29:54.431
01:37:29.344                             : :01:37:29.343
01:48:50.482                             : :01:48:50.482
01:55:27.629                             : :01:55:27.587 


Category:Movies > Hollywood Dub
Lang:Hindi
Total Size:4.67 GB



|| Download This Movie Via Single Resumable Links Size: 4.67 GB ||

Direct-1 Google Drive | Direct-2 | Direct-3 |

Watch Online Click Here

Post a Comment

0 Comments