Hotel Transylvania 3 (2018) BluRay 720p x264 Dual Audio [Hindi DD5.1 - English DD2.0] - ESUBS ~ Ranvijay


Poster


iMDB
Imdb Picture Title: Hotel Transylvania 3: Summer Vacation
Year: 2018
Runtime: 97 minutes
Votes: 2276
Rating: 6.4/10
Language: English
Country: USA
All Genres: Animation, Comedy, Family, Fantasy
Plot Outline: Mavis surprises Dracula with a family voyage on a luxury Monster Cruise Ship so he can take a vacation from providing everyone else's vacation at the hotel. The rest of Drac's Pack cannot resist going along. But once they leave port, romance arises when Dracula meets the mysterious ship Captain, Ericka. Now it's Mavis' turn to play the overprotective parent, keeping her dad and Ericka apart. Little do they know that his "too good to be true" love interest is actually a descendant of Abraham Van Helsing, ancient nemesis to Dracula and all other monsters.
Tagline: He's going to need a vacation after this vacation.
Director: Genndy Tartakovsky
Writing By: Michael McCullers,Genndy Tartakovsky,Todd Durham,
Produced By: Michelle Murdocca,Carey Smith,
Music: Mark Mothersbaugh Tiƫsto
Cast:
Adam Sandler as Dracula
Andy Samberg as Johnny
Selena Gomez as Mavis
Kevin James as Frank
Fran Drescher as Eunice
Steve Buscemi as Wayne
Molly Shannon as Wanda
David Spade as Griffin
Keegan-Michael Key as Murray
Jim Gaffigan as Van Helsing
Trailers:
Sneak Peek
Trailer #2
Trailer #1



Details
Name: Hotel Transylvania 3 (2018) BluRay 720p x264 Dual Audio [Hindi DD5.1 - English DD2.0] - ESUBS ~ Ranvijay
Description:
Hotel Transylvania 3 (2018) 720p BluRay x264 Dual Audio [Hindi DD5.1 - English DD2.0] - ESUBS ~ Ranvijay



Thanks To Hammer For Hindi Audio

Format                                   : Matroska
Format version                           : Version 4 / Version 2
File size                                : 1.35 GiB
Duration                                 : 1 h 37 min
Overall bit rate                         : 1 985 kb/s
Movie name                               : Hotel Transylvania 3 (2018) 720p BluRay x264 Dual Audio [Hindi DD5.1 - English DD2.0] - ESUBS ~ Ranvijay

Video
ID                                       : 1
Format                                   : AVC
Format/Info                              : Advanced Video Codec
Duration                                 : 1 h 37 min
Bit rate                                 : 1 193 kb/s
Width                                    : 1 280 pixels
Height                                   : 688 pixels
Display aspect ratio                     : 1.85:1
Frame rate mode                          : Constant
Frame rate                               : 23.976 (24000/1001) FPS
Color space                              : YUV
Chroma subsampling                       : 4:2:0
Bit depth                                : 8 bits
Scan type                                : Progressive
Bits/(Pixel*Frame)                       : 0.057
Stream size                              : 830 MiB (60%)
Title                                    : ~Ranvijay~

Audio #1
ID                                       : 2
Format                                   : AC-3
Format/Info                              : Audio Coding 3
Codec ID                                 : A_AC3
Duration                                 : 1 h 37 min
Bit rate mode                            : Constant
Bit rate                                 : 640 kb/s
Channel(s)                               : 6 channels
Channel positions                        : Front: L C R, Side: L R, LFE
Sampling rate                            : 48.0 kHz
Frame rate                               : 31.250 FPS (1536 SPF)
Bit depth                                : 16 bits
Compression mode                         : Lossy
Stream size                              : 446 MiB (32%)
Title                                    : ~Ranvijay~
Language                                 : Hindi
Service kind                             : Complete Main
Default                                  : Yes
Forced                                   : Yes

Audio #2
ID                                       : 3
Format                                   : AAC
Format/Info                              : Advanced Audio Codec
Format profile                           : HE-AAC / LC
Format settings                          : Explicit
Codec ID                                 : A_AAC-2
Duration                                 : 1 h 37 min
Bit rate                                 : 100.0 kb/s
Channel(s)                               : 2 channels
Channel positions                        : Front: L R
Sampling rate                            : 48.0 kHz / 24.0 kHz
Frame rate                               : 23.438 FPS (1024 SPF)
Compression mode                         : Lossy
Delay relative to video                  : 31 ms
Stream size                              : 69.7 MiB (5%)
Title                                    : ~Ranvijay~
Language                                 : English
Default                                  : No
Forced                                   : No

Text #1
ID                                       : 4
Format                                   : PGS
Muxing mode                              : zlib
Codec ID                                 : S_HDMV/PGS
Codec ID/Info                            : Picture based subtitle format used on BDs/HD-DVDs
Duration                                 : 1 h 26 min
Bit rate                                 : 36.5 kb/s
Count of elements                        : 2198
Stream size                              : 22.6 MiB (2%)
Title                                    : ~Ranvijay~
Language                                 : English
Default                                  : Yes
Forced                                   : Yes

Text #2
ID                                       : 5
Format                                   : PGS
Muxing mode                              : zlib
Codec ID                                 : S_HDMV/PGS
Codec ID/Info                            : Picture based subtitle format used on BDs/HD-DVDs
Duration                                 : 1 h 30 min
Bit rate                                 : 70.2 kb/s
Count of elements                        : 3281
Stream size                              : 45.3 MiB (3%)
Title                                    : ~Ranvijay~
Language                                 : English
Default                                  : No
Forced                                   : No

Text #3
ID                                       : 6
Format                                   : UTF-8
Codec ID                                 : S_TEXT/UTF8
Codec ID/Info                            : UTF-8 Plain Text
Duration                                 : 1 h 30 min
Bit rate                                 : 52 b/s
Count of elements                        : 1295
Stream size                              : 35.1 KiB (0%)
Title                                    : ~Ranvijay~
Language                                 : English
Default                                  : No
Forced                                   : No

Text #4
ID                                       : 7
Format                                   : UTF-8
Codec ID                                 : S_TEXT/UTF8
Codec ID/Info                            : UTF-8 Plain Text
Duration                                 : 1 h 30 min
Bit rate                                 : 65 b/s
Count of elements                        : 1629
Stream size                              : 43.8 KiB (0%)
Title                                    : ~Ranvijay~
Language                                 : English
Default                                  : No
Forced                                   : No

Menu
00:00:00.000                             : en:00:00:00.000
00:04:28.935                             : en:00:04:28.935
00:09:34.824                             : en:00:09:34.824
00:16:02.044                             : en:00:16:02.044
00:20:03.077                             : en:00:20:03.077
00:24:34.932                             : en:00:24:34.932
00:31:12.537                             : en:00:31:12.537
00:36:49.207                             : en:00:36:49.207
00:44:04.725                             : en:00:44:04.725
00:49:57.703                             : en:00:49:57.703
00:54:49.745                             : en:00:54:49.745
01:00:34.881                             : en:01:00:34.881
01:06:12.010                             : en:01:06:12.010
01:10:32.270                             : en:01:10:32.270
01:13:46.380                             : en:01:13:46.380
01:24:56.550                             : en:01:24:56.550

                 
Category:Movies > Hollywood Dub
Lang:Hindi
Total Size:1.37 GB



|| Download This Movie Via Single Resumable Links Size: 1.35 GB ||

Direct-1 Google Drive | Direct-2 | Direct-3 |

Watch Online Click Here

Post a Comment

0 Comments