Hotel Transylvania 3 (2018) BluRay 720p x265 [Dual Audio] [Hindi DD 5.1 - Eng] AAC Esub -=!Katyayan!=-

Poster


iMDB
Imdb Picture Title: Hotel Transylvania 3: Summer Vacation
Year: 2018
Runtime: 97 minutes
Votes: 2276
Rating: 6.4/10
Language: English
Country: USA
All Genres: Animation, Comedy, Family, Fantasy
Plot Outline: Mavis surprises Dracula with a family voyage on a luxury Monster Cruise Ship so he can take a vacation from providing everyone else's vacation at the hotel. The rest of Drac's Pack cannot resist going along. But once they leave port, romance arises when Dracula meets the mysterious ship Captain, Ericka. Now it's Mavis' turn to play the overprotective parent, keeping her dad and Ericka apart. Little do they know that his "too good to be true" love interest is actually a descendant of Abraham Van Helsing, ancient nemesis to Dracula and all other monsters.
Tagline: He's going to need a vacation after this vacation.
Director: Genndy Tartakovsky
Writing By: Michael McCullers,Genndy Tartakovsky,Todd Durham,
Produced By: Michelle Murdocca,Carey Smith,
Music: Mark Mothersbaugh Tiƫsto
Cast:
Adam Sandler as Dracula
Andy Samberg as Johnny
Selena Gomez as Mavis
Kevin James as Frank
Fran Drescher as Eunice
Steve Buscemi as Wayne
Molly Shannon as Wanda
David Spade as Griffin
Keegan-Michael Key as Murray
Jim Gaffigan as Van Helsing
Trailers:
Sneak Peek
Trailer #2
Trailer #1



Details
Name:Hotel Transylvania 3 (2018) BluRay 720p x265 [Dual Audio] [Hindi DD 5.1 - Eng] AAC Esub -=!Katy...
Description:
Hotel Transylvania 3  2018 BluRay 720p x265 [Dual Audio] [Hindi DD 5.1 - Eng] AAC Esub -=!Katyayan!=-

 

Thanks To Hammer For Org Audio

General
Format                                   : Matroska
Format version                           : Version 4 / Version 2
File size                                : 824 MiB
Duration                                 : 1 h 37 min
Overall bit rate                         : 1 183 kb/s
Movie name                               : Hotel Transylvania 3  2018 BluRay 720p x265 [Dual Audio] [Hindi DD 5.1 - Eng] AAC Esub -=!Katyayan!=-
Encoded date                             : UTC 2018-10-27 17:23:07
Writing application                      : mkvmerge v26.0.0 ('In The Game') 64-bit
Writing library                          : libebml v1.3.6 + libmatroska v1.4.9
Cover                                    : Yes
Attachments                              : Hotel Transylvania 3  2018 Cover.jpg

Video
ID                                       : 1
Format                                   : HEVC
Format/Info                              : High Efficiency Video Coding
Format profile                           : Main@L3.1@Main
Codec ID                                 : V_MPEGH/ISO/HEVC
Duration                                 : 1 h 37 min
Bit rate                                 : 891 kb/s
Width                                    : 1 280 pixels
Height                                   : 688 pixels
Display aspect ratio                     : 1.85:1
Frame rate mode                          : Constant
Frame rate                               : 23.976 (24000/1001) FPS
Color space                              : YUV
Chroma subsampling                       : 4:2:0
Bit depth                                : 8 bits
Bits/(Pixel*Frame)                       : 0.042
Stream size                              : 620 MiB (75%)
Title                                    : Hotel Transylvania 3  2018 BluRay 720p x265 [Dual Audio] [Hindi DD 5.1 - Eng] AAC Esub -=!Katyayan!=-
Language                                 : English
Default                                  : Yes
Forced                                   : No

Audio #1
ID                                       : 2
Format                                   : AAC
Format/Info                              : Advanced Audio Codec
Format profile                           : HE-AAC / LC
Format settings                          : Explicit
Codec ID                                 : A_AAC-2
Duration                                 : 1 h 37 min
Bit rate                                 : 70.0 kb/s
Channel(s)                               : 2 channels
Channel positions                        : Front: L R
Sampling rate                            : 48.0 kHz / 24.0 kHz
Frame rate                               : 23.438 FPS (1024 SPF)
Compression mode                         : Lossy
Delay relative to video                  : 23 ms
Stream size                              : 48.8 MiB (6%)
Title                                    : -=!Katyayan!=-
Language                                 : English
Default                                  : No
Forced                                   : No

Audio #2
ID                                       : 3
Format                                   : AAC
Format/Info                              : Advanced Audio Codec
Format profile                           : LC
Codec ID                                 : A_AAC-2
Duration                                 : 1 h 37 min
Bit rate                                 : 192 kb/s
Channel(s)                               : 6 channels
Channel positions                        : Front: L C R, Side: L R, LFE
Sampling rate                            : 48.0 kHz
Frame rate                               : 46.875 FPS (1024 SPF)
Compression mode                         : Lossy
Stream size                              : 134 MiB (16%)
Title                                    : -=!Katyayan!=-
Language                                 : Hindi
Default                                  : Yes
Forced                                   : Yes

Text
ID                                       : 4
Format                                   : PGS
Muxing mode                              : zlib
Codec ID                                 : S_HDMV/PGS
Codec ID/Info                            : Picture based subtitle format used on BDs/HD-DVDs
Duration                                 : 1 h 30 min
Bit rate                                 : 53.3 kb/s
Count of elements                        : 3259
Stream size                              : 34.6 MiB (4%)
Title                                    : -=!Katyayan!=-
Language                                 : English
Default                                  : Yes
Forced                                   : Yes

Menu
00:00:00.000                             : en:00:00:00.000
00:04:28.935                             : en:00:04:28.935
00:09:34.824                             : en:00:09:34.824
00:16:02.044                             : en:00:16:02.044
00:20:03.077                             : en:00:20:03.077
00:24:34.932                             : en:00:24:34.932
00:31:12.537                             : en:00:31:12.537
00:36:49.207                             : en:00:36:49.207
00:44:04.725                             : en:00:44:04.725
00:49:57.703                             : en:00:49:57.703
00:54:49.745                             : en:00:54:49.745
01:00:34.881                             : en:01:00:34.881
01:06:12.010                             : en:01:06:12.010
01:10:32.270                             : en:01:10:32.270
01:13:46.380                             : en:01:13:46.380
01:24:56.550                             : en:01:24:56.550


 
Category:Movies > Hollywood Dub
Lang:Hindi
Total Size:823.93 MB





|| Download This Movie Via Single Resumable Links Size: 824 MB ||

Direct-1 Google Drive | Direct-2 | Direct-3 |

Watch Online Click Here

Post a Comment

0 Comments