The Meg (2018) 720p WEB-DL HQ Line Auds [Hindi + Tamil + Eng] x264 ~TMV


Poster


iMDB
Imdb Picture Title: The Meg
Year: 2018
Runtime: 113 minutes
Votes: 1944
Rating: 6.5/10
Language: English
Country: China, USA
All Genres: Action, Horror, Sci-Fi, Thriller
Plot Outline: Five years ago, expert sea diver and Naval Captain Jonas Taylor encountered an unknown danger in the unexplored recesses of the Mariana Trench that forced him to abort his mission and abandon half his crew. Though the tragic incident earned him a dishonorable discharge, what ultimately cost him his career, his marriage and any semblance of honor was his unsupported and incredulous claims of what caused it - an attack on his vessel by a mammoth, 70-foot sea creature, believed to be extinct for more than a million years. But when a submersible lies sunk and disabled at the bottom of the ocean - carrying his ex-wife among the team onboard - he is the one who gets the call. Whether a shot at redemption or a suicide mission, Jonas must confront his fears and risk his own life and the lives of everyone trapped below on a single question: Could the Carcharodon Megalodon - the largest marine predator that ever existed - still be alive ... and on the hunt? Written by Warner Brothers
Tagline: Pleased to eat you.
Director: Jon Turteltaub
Writing By: Dean Georgaris,Jon Hoeber,Erich Hoeber,Steve Alten,
Produced By: Kenneth Atchity,Belle Avery,Jie Chen,Lorenzo di Bonaventura,Randy Greenberg,Tom Hern,Ben Erwei Ji,Wayne Wei Jiang,Ming Beaver Kwei,Gerald R. Molen,Chantal Nong,Barrie M. Osborne,Chunzi Wang,Colin Wilson,Chi-Li Wong,Catherine Xujun Ying,
Music: Harry Gregson-Williams
Cast:
Jason Statham as Jonas Taylor
Bingbing Li as Suyin
Rainn Wilson as Morris
Cliff Curtis as Mac
Winston Chao as Zhang
Shuya Sophia Cai as Meiying
Ruby Rose as Jaxx
Page Kennedy as DJ
Robert Taylor as Heller
Ólafur Darri Ólafsson as The Wall
Trailers:
Trailer #1



Details
Name:The Meg (2018) 720p WEB-DL HQ Line Auds [Hindi + Tamil + Eng] x264 ~TMV
Description:
The Meg (2018) 720p WEB-DL HQ Line Auds [Hindi + Tamil + Eng] x264 ~TMV


General
Format                                   : Matroska
Format version                           : Version 4 / Version 2
File size                                : 1 008 MiB
Duration                                 : 1 h 54 min
Overall bit rate mode                    : Variable
Overall bit rate                         : 1 231 kb/s

Video
ID                                       : 1
Format                                   : AVC
Format/Info                              : Advanced Video Codec
Format profile                           : High@L3.1
Format settings                          : CABAC / 4 Ref Frames
Format settings, CABAC                   : Yes
Format settings, ReFrames                : 4 frames
Codec ID                                 : V_MPEG4/ISO/AVC
Duration                                 : 1 h 54 min
Bit rate                                 : 944 kb/s
Width                                    : 1 280 pixels
Height                                   : 536 pixels
Display aspect ratio                     : 2.40:1
Frame rate mode                          : Constant
Frame rate                               : 23.813 FPS
Color space                              : YUV
Chroma subsampling                       : 4:2:0
Bit depth                                : 8 bits
Scan type                                : Progressive
Bits/(Pixel*Frame)                       : 0.058
Stream size                              : 773 MiB (77%)
Writing library                          : x264 core 155 r2901 7d0ff22
Language                                 : English
Default                                  : Yes
Forced                                   : No

Audio #1
ID                                       : 2
Format                                   : MPEG Audio
Format version                           : Version 1
Format profile                           : Layer 3
Format settings                          : Joint stereo / MS Stereo
Codec ID                                 : A_MPEG/L3
Codec ID/Hint                            : MP3
Duration                                 : 1 h 54 min
Bit rate mode                            : Variable
Bit rate                                 : 96.0 kb/s
Channel(s)                               : 2 channels
Sampling rate                            : 48.0 kHz
Frame rate                               : 41.667 FPS (1152 SPF)
Compression mode                         : Lossy
Stream size                              : 79.0 MiB (8%)
Writing library                          : LAME3.99r
Encoding settings                        : -m j -V 4 -q 3 -lowpass 15.1 --abr 96
Language                                 : Tamil
Default                                  : Yes
Forced                                   : No

Audio #2
ID                                       : 3
Format                                   : MPEG Audio
Format version                           : Version 1
Format profile                           : Layer 3
Format settings                          : Joint stereo / MS Stereo
Codec ID                                 : A_MPEG/L3
Codec ID/Hint                            : MP3
Duration                                 : 1 h 54 min
Bit rate mode                            : Variable
Bit rate                                 : 96.0 kb/s
Channel(s)                               : 2 channels
Sampling rate                            : 44.1 kHz
Frame rate                               : 38.281 FPS (1152 SPF)
Compression mode                         : Lossy
Stream size                              : 79.6 MiB (8%)
Writing library                          : LAME3.99r
Encoding settings                        : -m j -V 4 -q 3 -lowpass 15.1 --abr 96
Language                                 : Hindi
Default                                  : No
Forced                                   : No

Audio #3
ID                                       : 4
Format                                   : MPEG Audio
Format version                           : Version 1
Format profile                           : Layer 3
Format settings                          : Joint stereo / MS Stereo
Codec ID                                 : A_MPEG/L3
Codec ID/Hint                            : MP3
Duration                                 : 1 h 54 min
Bit rate mode                            : Variable
Bit rate                                 : 90.2 kb/s
Nominal bit rate                         : 96.0 kb/s
Channel(s)                               : 2 channels
Sampling rate                            : 48.0 kHz
Frame rate                               : 41.667 FPS (1152 SPF)
Compression mode                         : Lossy
Stream size                              : 73.8 MiB (7%)
Writing library                          : LAME3.99r
Encoding settings                        : -m j -V 4 -q 3 -lowpass 15.1 --abr 96
Language                                 : English
Default                                  : No
Forced                                   : No

bfb9e86ecaff2f5aef0157f3aaedc46d.md.png4f486c54a374b1512c17e7650299ebea.md.png
21f124138e49fd9cf9bb849aaa9c5bbf.md.pngce86e8b895d28ecb94122d155f6f5d4d.md.png
a55eeaeaba935bb16c3ac376b5e54337.md.png
Category:Movies > Hollywood Dub
Lang:Hindi
Total Size:1007.99 MB



|| Download This Movie Via Single Resumable Links Size: 1008 MB ||

Direct-1 Google Drive | Direct-2 | Direct-3 |

Watch Online Click Here

Post a Comment

0 Comments