Yuddham Sharanam (2017) Hindi Dub 720p UntoucheD WEB-HD x264 AAC


Poster


iMDB
Imdb Picture Title: Yuddham Sharanam
Year: 2017
Runtime: 141 minutes
Votes: 49
Rating: 8.0/10
Language: Telugu
Country: India
All Genres: Thriller
Plot Outline: When his family is torn apart, Arjun sets out to on a journey to solve the mystery and seek revenge.
Director: Krishna Marimuthu
Writing By: Krishna Marimuthu,David Nathan,
Produced By: S.S. Karthikeya,Sai Korrapati,
Music: Vivek Sagar
Cast:
Naga Chaitanya Akkineni as Arjun
Lavanya Tripathi as Anjali
Meka Srikanth as Nayak Samudrala
Revathy as Seetha
Rao Ramesh as Murali
Priyadarshi Pulikonda as
Murli Sharma as Jayadev Sastry
Raja Ravindra as



Details
Name:Yuddham Sharanam (2017) Hindi Dub 720p UntoucheD WEB-HD x264 AAC
Description:
Yuddham Sharanam (2017) Hindi Dub 720p UntoucheD WEB-HD x264 AAC



General
Format                                   : MPEG-4
Format profile                           : Base Media / Version 2
Codec ID                                 : mp42 (isom/mp42)
File size                                : 1.08 GiB
Duration                                 : 1 h 57 min
Overall bit rate mode                    : Variable
Overall bit rate                         : 1 313 kb/s
Encoded date                             : UTC 2018-10-09 14:57:45
Tagged date                              : UTC 2018-10-09 14:57:45
gsst                                     : 0
gstd                                     : 7032163

Video
ID                                       : 1
Format                                   : AVC
Format/Info                              : Advanced Video Codec
Format profile                           : Main@L3.1
Format settings                          : CABAC / 3 Ref Frames
Format settings, CABAC                   : Yes
Format settings, ReFrames                : 3 frames
Codec ID                                 : avc1
Codec ID/Info                            : Advanced Video Coding
Duration                                 : 1 h 57 min
Bit rate                                 : 1 184 kb/s
Width                                    : 1 280 pixels
Height                                   : 720 pixels
Display aspect ratio                     : 16:9
Frame rate mode                          : Constant
Frame rate                               : 25.000 FPS
Color space                              : YUV
Chroma subsampling                       : 4:2:0
Bit depth                                : 8 bits
Scan type                                : Progressive
Bits/(Pixel*Frame)                       : 0.051
Stream size                              : 993 MiB (90%)
Title                                    : ISO Media file produced by Google Inc. Created on: 10/09/2018.
Encoded date                             : UTC 2018-10-09 14:57:45
Tagged date                              : UTC 2018-10-09 14:57:45
Color range                              : Limited
Color primaries                          : BT.709
Transfer characteristics                 : BT.709
Matrix coefficients                      : BT.709

Audio
ID                                       : 2
Format                                   : AAC
Format/Info                              : Advanced Audio Codec
Format profile                           : LC
Codec ID                                 : mp4a-40-2
Duration                                 : 1 h 57 min
Source duration                          : 1 h 57 min
Bit rate mode                            : Variable
Bit rate                                 : 126 kb/s
Channel(s)                               : 2 channels
Channel positions                        : Front: L R
Sampling rate                            : 44.1 kHz
Frame rate                               : 43.066 FPS (1024 SPF)
Compression mode                         : Lossy
Stream size                              : 105 MiB (10%)
Source stream size                       : 105 MiB (10%)
Title                                    : ISO Media file produced by Google Inc. Created on: 10/09/2018.
Language                                 : English
Encoded date                             : UTC 2018-10-09 14:57:45
Tagged date                              : UTC 2018-10-09 14:57:45

a3a8eaef81674fe43e8035659b9b27e7.jpg
Category:Movies > South Dub
Lang:Hindi
Total Size:1.08 GB





|| Download This Movie Via Single Resumable Links Size: 1.08 GB ||

Direct-1 Google Drive | Direct-2 | Direct-3 |

Watch Online Click Here

Post a Comment

0 Comments