Kathalo Rajakumar (2017) Hindi Dub 720p HDRip x264 AAC ESubs 850MB - MovCr

Poster


iMDB
Imdb Picture Title: Kathalo Rajakumar
Year: 2017
Votes: 5
Rating: 5.8/10
Language: Telugu
Country: India
Plot Outline: Arjun is an arrogant film star who leads his life by degrading his fellow staff all the time. When everything seems to be going fine, a major car accident completely changes his mindset and...
Director: Mahesh Surapaneni

Music: Vishal Chandrashekar Ilaiyaraaja
Cast:
Namitha Pramod as
Nara Rohith as



Details
Name:Kathalo Rajakumar (2017) Hindi Dub 720p HDRip x264 AAC ESubs 850MB - MovCr
Description:
Kathalo Rajakumar (2017) Hindi Dub 720p HDRip x264 AAC ESubs 850MB - MovCr


Format                                   : Matroska
Format version                           : Version 4 / Version 2
File size                                : 845 MiB
Duration                                 : 1 h 23 min
Overall bit rate                         : 1 420 kb/s

Video
ID                                       : 1
Format                                   : AVC
Format/Info                              : Advanced Video Codec
Format profile                           : Baseline@L3.1
Format settings                          : 2 Ref Frames
Format settings, CABAC                   : No
Format settings, RefFrames               : 2 frames
Format settings, GOP                     : M=1, N=25
Codec ID                                 : V_MPEG4/ISO/AVC
Duration                                 : 1 h 23 min
Bit rate                                 : 1 241 kb/s
Width                                    : 1 280 pixels
Height                                   : 544 pixels
Display aspect ratio                     : 2.35:1
Frame rate mode                          : Constant
Frame rate                               : 25.000 FPS
Color space                              : YUV
Chroma subsampling                       : 4:2:0
Bit depth                                : 8 bits
Scan type                                : Progressive
Bits/(Pixel*Frame)                       : 0.071
Stream size                              : 738 MiB (87%)
Default                                  : Yes
Forced                                   : No

Audio
ID                                       : 2
Format                                   : AAC
Format/Info                              : Advanced Audio Codec
Format profile                           : LC
Codec ID                                 : A_AAC-2
Duration                                 : 1 h 23 min
Bit rate                                 : 176 kb/s
Channel(s)                               : 2 channels
Channel positions                        : Front: L R
Sampling rate                            : 48.0 kHz
Frame rate                               : 46.875 FPS (1024 SPF)
Compression mode                         : Lossy
Stream size                              : 105 MiB (12%)
Language                                 : Hindi
Default                                  : Yes
Forced                                   : No

Text
ID                                       : 3
Format                                   : S_TEXT/WEBVTT
Codec ID                                 : S_TEXT/WEBVTT
Duration                                 : 59 min 15 s
Bit rate                                 : 126 b/s
Count of elements                        : 1048
Stream size                              : 54.7 KiB (0%)
Language                                 : English
Default                                  : Yes
Forced                                   : No



 
 
 
 
 
 
 
 
 
 
Category:Movies > South Dub
Lang:Hindi
Total Size:844.69 MB



|| Download This Movie Via Single Resumable Links Size: 845 MB ||

Direct-1 Google Drive | Direct-2 | Direct-3 |

Watch Online Click Here

Post a Comment

0 Comments