The Hunger Games: Catching Fire (2013) IMAX 1080p 10bit Bluray x265 HEVC [Org DD 5.1 Hindi + DD 5.1 English] ESubs ~ TombDoc


Poster


iMDB
Imdb Picture Title: The Hunger Games: Catching Fire
Year: 2013
Runtime: 146 minutes
Votes: 544614
Rating: 7.5/10
Language: English
Country: USA
All Genres: Action, Adventure, Mystery, Sci-Fi, Thriller
Plot Outline: Katniss Everdeen and Peeta Mellark become targets of the Capitol after their victory in the 74th Hunger Games sparks a rebellion in the Districts of Panem.
Tagline: Every revolution begins with a spark.
Director: Francis Lawrence
Writing By: Simon Beaufoy,Michael Arndt,Suzanne Collins,
Produced By: Suzanne Collins,Joseph Drake,Nina Jacobson,Jon Kilik,Michael Paseornek,Aldric La'auli Porter,Louise Rosner,Allison Shearmur,Bryan Unkeless,
Music: James Newton Howard
Cast:
Jennifer Lawrence as Katniss Everdeen
Liam Hemsworth as Gale Hawthorne
Jack Quaid as Marvel
Taylor St. Clair as Ripper
Sandra Ellis Lafferty as Greasy Sae
Woody Harrelson as Haymitch Abernathy
Josh Hutcherson as Peeta Mellark
Paula Malcomson as Katniss' Mother
Willow Shields as Primrose Everdeen
Donald Sutherland as President Snow
Trailers:
Final Trailer
Trailer #1
Trailer #2




Details
Name:The Hunger Games: Catching Fire (2013) IMAX 1080p 10bit Bluray x265 HEVC [Org DD 5.1 Hindi + DD 5.1 English] ESubs ~ TombDoc
Description:
The Hunger Games: Catching Fire (2013) IMAX 1080p 10bit Bluray x265 HEVC [Org DD 5.1 Hindi + DD 5.1 English] ESubs ~ TombDoc

Org Untouced DvD DD 5.1 448Kbps Hindi Audio By PyZ {Thanks}


Format                                   : Matroska
Format version                           : Version 4
File size                                : 3.45 GiB
Duration                                 : 2 h 26 min
Overall bit rate                         : 3 374 kb/s

Video
ID                                       : 1
Format                                   : HEVC
Format/Info                              : High Efficiency Video Coding
Format profile                           : Main 10@L4@Main
Codec ID                                 : V_MPEGH/ISO/HEVC
Duration                                 : 2 h 26 min
Bit rate                                 : 2 520 kb/s
Width                                    : 1 920 pixels
Height                                   : 1 080 pixels
Display aspect ratio                     : 16:9
Frame rate mode                          : Constant
Frame rate                               : 23.976 (24000/1001) FPS
Color space                              : YUV
Chroma subsampling                       : 4:2:0
Bit depth                                : 10 bits
Bits/(Pixel*Frame)                       : 0.051
Stream size                              : 2.57 GiB (75%)
Default                                  : Yes
Forced                                   : Yes
Color range                              : Limited
Matrix coefficients                      : BT.709

Audio #1
ID                                       : 2
Format                                   : AC-3
Format/Info                              : Audio Coding 3
Commercial name                          : Dolby Digital
Codec ID                                 : A_AC3
Duration                                 : 2 h 26 min
Bit rate mode                            : Constant
Bit rate                                 : 448 kb/s
Channel(s)                               : 6 channels
Channel layout                           : L R C LFE Ls Rs
Sampling rate                            : 48.0 kHz
Frame rate                               : 31.250 FPS (1536 SPF)
Bit depth                                : 16 bits
Compression mode                         : Lossy
Delay relative to video                  : 1 s 735 ms
Stream size                              : 468 MiB (13%)
Title                                    : Org DvD DD 5.1 448Kbps ~ TombDoc
Language                                 : Hindi
Service kind                             : Complete Main
Default                                  : Yes
Forced                                   : Yes

Audio #2
ID                                       : 3
Format                                   : AC-3
Format/Info                              : Audio Coding 3
Commercial name                          : Dolby Digital
Codec ID                                 : A_AC3
Duration                                 : 2 h 26 min
Bit rate mode                            : Constant
Bit rate                                 : 384 kb/s
Channel(s)                               : 6 channels
Channel layout                           : L R C LFE Ls Rs
Sampling rate                            : 48.0 kHz
Frame rate                               : 31.250 FPS (1536 SPF)
Bit depth                                : 16 bits
Compression mode                         : Lossy
Stream size                              : 402 MiB (11%)
Language                                 : English
Service kind                             : Complete Main
Default                                  : No
Forced                                   : No

Text #1
ID                                       : 4
Format                                   : PGS
Muxing mode                              : zlib
Codec ID                                 : S_HDMV/PGS
Codec ID/Info                            : Picture based subtitle format used on BDs/HD-DVDs
Duration                                 : 2 h 13 min
Bit rate                                 : 29.4 kb/s
Count of elements                        : 3078
Stream size                              : 28.2 MiB (1%)
Title                                    : Eng BD-PGS
Language                                 : English
Default                                  : Yes
Forced                                   : Yes

Text #2
ID                                       : 5
Format                                   : PGS
Muxing mode                              : zlib
Codec ID                                 : S_HDMV/PGS
Codec ID/Info                            : Picture based subtitle format used on BDs/HD-DVDs
Duration                                 : 2 h 13 min
Bit rate                                 : 35.5 kb/s
Count of elements                        : 4010
Stream size                              : 34.0 MiB (1%)
Title                                    : Eng BD-PGS-SDH
Language                                 : English
Default                                  : No
Forced                                   : No



         
Category:Movies > Hollywood Dub
Lang:Hindi
Total Size:3.50 GB





|| Download This Movie Via Single Resumable Links Size: 3.45 GB ||

Direct-1 Google Drive | Direct-2 | Direct-3 |

Watch Online Click Here

Post a Comment

1 Comments

  1. Please Don't Upload 10bit.. Only 1080p BluRay Upload Movie.

    ReplyDelete